<?xml version="1.0" standalone="no"?>
<!DOCTYPE svg PUBLIC "-//W3C//DTD SVG 1.1//EN" "http://www.w3.org/Graphics/SVG/1.1/DTD/svg11.dtd" >
<svg xmlns="http://www.w3.org/2000/svg">
<metadata>Generated by IcoMoon</metadata>
<defs>
<font id="1creator" horiz-adv-x="1024">
<font-face units-per-em="1024" ascent="960" descent="-64" />
<missing-glyph horiz-adv-x="1024" />
<glyph unicode="&#x20;" horiz-adv-x="512" d="" />
<glyph unicode="&#xe900;" glyph-name="activity" d="M712.237 559.996c7.578-5.789 12.411-14.739 12.411-24.788 0-0.003 0-0.007 0-0.011 0-7.306-2.543-14.018-6.791-19.3l0.046 0.060 0.048 0.068-124.969-157.99c-5.954-7.421-15.023-12.131-25.191-12.131-0.033 0-0.066 0-0.1 0h0.005c-0.026 0-0.057 0-0.088 0-7.472 0-14.352 2.538-19.823 6.799l0.072-0.054 0.068-0.048-120.231 92.454-108.032-137.51c-5.941-7.838-15.257-12.848-25.743-12.848-0.034 0-0.067 0-0.101 0h0.005c-17.674 0-32.003 14.036-32.003 31.348 0 7.509 2.703 14.404 7.195 19.797l-0.041-0.055 127.7 162.584c5.954 7.465 15.049 12.206 25.251 12.206 0.031 0 0.063 0 0.094 0h-0.005c7.489 0 14.377-2.519 19.825-6.738l-0.068 0.055 120.32-92.535 105.26 133.031c5.954 7.437 15.032 12.158 25.213 12.158 0.030 0 0.061 0 0.091 0h-0.005c0.024 0 0.053 0 0.081 0 7.393 0 14.206-2.485 19.649-6.665l-0.077 0.056-0.068 0.055zM838.319 817.955h-0.020c-27.607 0-49.985-21.92-49.985-48.961 0-27.034 22.364-48.947 49.958-48.968h0.020c27.607 0 49.985 21.927 49.985 48.968 0 27.034-22.364 48.947-49.958 48.961zM724.314 768.974v0.020c0 61.665 51.029 111.657 113.985 111.657 62.942 0 113.971-49.978 113.978-111.636v-0.020c0-61.665-51.029-111.657-113.978-111.657s-113.978 49.978-113.985 111.636zM212.655 713.179c-52.183-51.118-76.937-136.67-76.937-279.866 0-143.237 24.835-228.755 76.977-279.866 52.183-51.118 139.517-75.401 285.737-75.401 146.227 0 233.513 24.241 285.696 75.401 52.183 51.070 76.93 136.588 76.93 279.866 0 46.223-2.56 86.726-7.892 122.211-0.135 1.058-0.212 2.282-0.212 3.524 0 0.026 0 0.052 0 0.077v-0.004c0 17.312 14.322 31.348 31.997 31.348 15.654 0 28.686-11.011 31.457-25.559l0.027-0.198c5.973-39.322 8.663-83.081 8.663-131.407 0-146.705-24.576-254.532-95.696-324.205-71.175-69.721-181.207-93.751-331.011-93.751-149.763 0-259.755 24.030-330.923 93.751-71.168 69.714-95.744 177.466-95.744 324.212 0 146.705 24.576 254.498 95.744 324.205 71.086 69.721 181.118 93.751 330.923 93.751 48.428 0 92.297-2.505 131.843-8.151 15.189-2.621 26.59-15.456 26.59-30.897 0-17.312-14.329-31.341-32.003-31.341-1.324 0-2.635 0.075-3.919 0.225l0.157-0.014c-35.71 5.059-76.377 7.482-122.668 7.482-146.22 0-233.561-24.282-285.737-75.394z" />
<glyph unicode="&#xe901;" glyph-name="add-user" d="M227.625 259.711c-50.429-31.184-74.615-68.881-74.615-101.82 0-15.879 5.373-27.75 15.36-37.868 10.663-10.861 27.853-20.808 52.688-28.959 49.923-16.425 121.003-22.487 201.687-22.487 81.067 0 152.146 6.267 201.94 22.903 24.747 8.233 41.813 18.261 52.524 29.211 9.94 10.199 15.271 22.153 15.271 38.038 0 32.891-24.235 70.342-74.834 101.396-49.534 30.426-118.996 50.784-194.901 50.784-76.288 0-145.708-20.569-195.113-51.159v-0.041zM193.451 312.754c60.505 37.444 141.995 60.805 229.294 60.805 86.869 0 168.277-23.156 228.905-60.348 59.61-36.577 104.837-90.87 104.837-154.481 0-32.352-11.906-59.727-32.98-81.381-20.357-20.896-47.964-35.191-78.213-45.261-60.163-20.064-139.947-26.249-222.549-26.249-82.050 0-161.792 5.932-222.037 25.743-30.29 9.946-58.027 24.119-78.507 44.933-20.535 20.541-33.205 48.695-33.205 79.749 0 0.56 0 1.113 0.014 1.673v-0.089c0 63.536 44.885 118.033 104.448 154.856v0.041zM197.383 669.393c0.020 121.924 100.932 220.768 225.403 220.768 124.491 0 225.417-98.864 225.417-220.809 0-121.952-100.925-220.809-225.417-220.809h-1.488c-123.788 0.451-223.956 98.85-223.956 220.18v0.669h0.041zM422.704 827.465c-89.108-0.048-161.328-70.82-161.328-158.112v-0.628c0-86.76 71.612-157.129 160.099-157.491h1.311c87.559 2.041 157.744 72.049 157.744 158.119s-70.185 156.078-157.546 158.106l-0.198 0.007h-0.082zM815.661 640.216c17.674 0 32.003-14.029 32.003-31.341v-167.601c0-17.312-14.329-31.348-32.003-31.348s-31.997 14.036-31.997 31.348v167.595c0 17.319 14.322 31.348 31.997 31.348zM696.495 525.118c0 17.306 14.329 31.341 32.003 31.341h174.503c17.674 0 32.003-14.036 32.003-31.348s-14.329-31.348-32.003-31.348h-174.503c-17.674 0-32.003 14.036-32.003 31.348z" />
<glyph unicode="&#xe902;" glyph-name="align-justify" d="M170.667 751.111c0 21.11 17.113 38.223 38.223 38.223v0h606.222c20.8-0.406 37.507-17.363 37.507-38.223s-16.706-37.817-37.469-38.222l-0.038-0.001h-606.222c-21.11 0-38.223 17.113-38.223 38.223v0zM208.889 561.78c-21.11 0-38.223 17.113-38.223 38.223s17.113 38.223 38.223 38.223v0h606.215c20.8-0.406 37.507-17.363 37.507-38.223s-16.706-37.817-37.469-38.222l-0.038-0.001h-606.215zM208.002 410.665c-20.62 0-37.335 16.715-37.335 37.335s16.715 37.335 37.335 37.335v0h607.997c20.62 0 37.335-16.715 37.335-37.335s-16.715-37.335-37.335-37.335v0h-607.997zM208.889 257.775c-21.11 0-38.223 17.113-38.223 38.223s17.113 38.223 38.223 38.223h606.215c20.8-0.406 37.507-17.363 37.507-38.223s-16.706-37.817-37.469-38.222l-0.038-0.001h-606.215zM208.889 106.667c-20.8 0.406-37.507 17.363-37.507 38.223s16.706 37.817 37.469 38.222l0.038 0.001h606.222c20.8-0.406 37.507-17.363 37.507-38.223s-16.706-37.817-37.469-38.222l-0.038-0.001h-606.222z" />
<glyph unicode="&#xe903;" glyph-name="align-left" d="M170.666 751.111c0 21.11 17.113 38.223 38.223 38.223v0h606.222c20.8-0.406 37.507-17.363 37.507-38.223s-16.706-37.817-37.469-38.222l-0.038-0.001h-606.222c-21.11 0-38.223 17.113-38.223 38.223v0zM208.888 106.667c-20.8 0.406-37.507 17.363-37.507 38.223s16.706 37.817 37.469 38.222l0.038 0.001h606.222c20.8-0.406 37.507-17.363 37.507-38.223s-16.706-37.817-37.469-38.222l-0.038-0.001h-606.222zM208.001 410.665c-20.62 0-37.335 16.715-37.335 37.335s16.715 37.335 37.335 37.335v0h607.997c20.62 0 37.335-16.715 37.335-37.335s-16.715-37.335-37.335-37.335v0h-607.997zM587.557 638.225c21.11 0 38.223-17.113 38.223-38.223s-17.113-38.223-38.223-38.223v0h-378.668c-21.11 0-38.223 17.113-38.223 38.223s17.113 38.223 38.223 38.223v0h378.668zM587.557 334.22c20.8-0.406 37.507-17.363 37.507-38.223s-16.706-37.817-37.469-38.222l-0.038-0.001h-378.668c-21.11 0-38.223 17.113-38.223 38.223s17.113 38.223 38.223 38.223v0h378.668z" />
<glyph unicode="&#xe904;" glyph-name="align-right" d="M170.667 751.104c0 21.113 17.116 38.229 38.229 38.229v0h606.208c20.8-0.406 37.507-17.363 37.507-38.223s-16.706-37.817-37.469-38.222l-0.038-0.001h-606.215c-21.106 0.004-38.215 17.11-38.223 38.215v0.001zM436.442 561.78c-21.11 0-38.223 17.113-38.223 38.223s17.113 38.223 38.223 38.223v0h378.662c21.11 0 38.223-17.113 38.223-38.223s-17.113-38.223-38.223-38.223v0h-378.662zM208.002 410.658c-20.62 0-37.335 16.715-37.335 37.335s16.715 37.335 37.335 37.335v0h607.997c20.62 0 37.335-16.715 37.335-37.335s-16.715-37.335-37.335-37.335v0h-607.997zM436.442 257.768c-20.8 0.406-37.507 17.363-37.507 38.223s16.706 37.817 37.469 38.222l0.038 0.001h378.662c21.11 0 38.223-17.113 38.223-38.223s-17.113-38.223-38.223-38.223v0h-378.662zM208.896 106.667c-20.8 0.406-37.507 17.363-37.507 38.223s16.706 37.817 37.469 38.222l0.038 0.001h606.222c20.8-0.406 37.507-17.363 37.507-38.223s-16.706-37.817-37.469-38.222l-0.038-0.001h-606.228z" />
<glyph unicode="&#xe905;" glyph-name="arrow-alt-down" d="M511.984 792.816c17.674 0 31.997-14.036 31.997-31.348v-626.934c0-17.312-14.322-31.348-31.997-31.348-17.681 0-32.003 14.036-32.003 31.348v626.934c0 17.312 14.336 31.348 32.003 31.348zM784.238 414.98c10.083-5.407 16.807-15.729 16.807-27.58 0-5.461-1.42-10.581-3.919-15.046l0.082 0.164-0.123-0.253-0.341-0.621-1.283-2.26-4.861-8.397c-26.795-45.759-53.391-84.671-82.391-121.672l1.918 2.546c-25.47-32.515-55.637-66.205-87.934-92.071-31.573-25.286-69.55-46.606-110.121-46.606-40.578 0-78.595 21.32-110.169 46.606-32.338 25.825-62.505 59.556-88.016 92.112-29.054 36.946-57.276 78.602-82.493 122.15l-2.847 5.325-1.277 2.26-0.341 0.628-0.13 0.253v-0.041c-2.418 4.269-3.844 9.375-3.844 14.815 0 0.031 0 0.062 0 0.092v-0.005c0 17.312 14.336 31.348 32.003 31.348 12.104 0 22.637-6.581 28.078-16.288l0.123-0.246 0.259-0.457 1.113-1.966 4.39-7.687c25.218-43.028 50.244-79.613 77.537-114.415l-1.802 2.396c24.064-30.679 50.77-60.184 77.742-81.749 27.689-22.153 51.282-32.433 69.673-32.433 18.343 0 41.936 10.281 69.632 32.433 26.877 21.565 53.63 51.077 77.653 81.749 27.238 34.679 53.726 73.796 77.408 114.681l2.676 5.024 1.113 1.925 0.253 0.457 0.089 0.123 43.343 12.704zM784.238 414.98c-4.372 2.378-9.574 3.775-15.102 3.775-0.040 0-0.081 0-0.121 0h0.006c-0.042 0-0.091 0-0.141 0-11.926 0-22.334-6.504-27.868-16.159l-0.083-0.157-0.082-0.164 43.39 12.704z" />
<glyph unicode="&#xe906;" glyph-name="arrow-alt-left" d="M864 448.147c0-17.312-14.329-31.341-32.003-31.341h-640c-17.667 0-31.997 14.029-31.997 31.341s14.329 31.348 32.003 31.348h639.993c17.674 0 32.003-14.036 32.003-31.348zM478.294 181.45c-5.609-9.897-16.071-16.466-28.067-16.466-0.033 0-0.065 0-0.098 0h0.005c-0.019 0-0.042 0-0.065 0-5.601 0-10.869 1.421-15.465 3.921l0.17-0.085 0.171-0.082-0.253 0.13-0.642 0.328-2.301 1.256c-19.337 10.37-33.511 18.625-47.446 27.23l4.083-2.347 4.663-2.649c-35.512 21.422-65.331 41.649-94.037 63.242l2.601-1.884c-33.239 24.951-67.625 54.504-94.037 86.139-25.812 30.932-47.575 68.13-47.575 107.882 0 39.745 21.763 76.984 47.582 107.916 26.365 31.676 60.791 61.235 94.031 86.221 37.717 28.46 80.234 56.115 124.696 80.814l5.441 2.778 2.301 1.256 0.642 0.335 0.171 0.082h0.082l15.189-27.546-15.189 27.587c4.244 2.212 9.269 3.509 14.597 3.509 0.040 0 0.081 0 0.121 0h-0.006c17.674 0 31.997-14.036 31.997-31.348 0-11.674-6.513-21.852-16.172-27.252l-0.157-0.075-0.082-0.048-0.471-0.246-2.007-1.092-7.851-4.301c-43.923-24.699-81.271-49.22-116.791-75.953l2.444 1.768c-31.314-23.572-61.44-49.739-83.456-76.158-22.61-27.122-33.109-50.237-33.109-68.246 0-17.975 10.499-41.090 33.109-68.212 22.016-26.33 52.142-52.538 83.456-76.070 35.41-26.706 75.339-52.675 117.077-75.872l5.12-2.621 2.437-1.297 0.13-0.082 12.971-42.462zM478.294 181.45c2.423 4.269 3.85 9.377 3.85 14.818 0 0.032 0 0.064 0 0.096v-0.005c0 11.865-6.724 22.187-16.657 27.511l-0.164 0.082 12.971-42.503z" />
<glyph unicode="&#xe907;" glyph-name="arrow-alt-right" d="M160 447.983c0 17.312 14.329 31.348 32.003 31.348h640c17.667 0 31.997-14.036 31.997-31.348s-14.329-31.348-31.997-31.348h-640c-17.681 0-32.003 14.036-32.003 31.348zM545.706 714.687c5.61 9.893 16.070 16.459 28.063 16.459 0.034 0 0.068 0 0.102 0h-0.005c5.564 0 10.8-1.393 15.36-3.837l-0.171 0.082 0.253-0.123 0.642-0.335 2.307-1.256 8.533-4.765c46.708-26.242 86.426-52.292 124.198-80.705l-2.601 1.877c33.239-24.951 67.625-54.497 94.037-86.139 25.771-30.925 47.575-68.13 47.575-107.875 0-39.752-21.763-76.991-47.575-107.916-26.371-31.676-60.798-61.235-94.037-86.228-37.711-28.454-80.234-56.108-124.689-80.807l-5.441-2.785-2.307-1.256-0.894-0.457h0.041c-4.374-2.373-9.577-3.768-15.106-3.768-0.037 0-0.073 0-0.109 0h0.006c-17.681 0-32.003 14.042-32.003 31.355 0 11.858 6.717 22.173 16.623 27.505l0.253 0.123 0.478 0.246 2 1.092 7.851 4.301c43.923 24.706 81.271 49.227 116.797 75.96l-2.451-1.775c31.314 23.579 61.44 49.739 83.456 76.158 22.61 27.122 33.109 50.237 33.109 68.253 0 17.968-10.499 41.083-33.109 68.205-22.016 26.337-52.142 52.538-83.456 76.070-35.41 26.706-75.339 52.675-117.077 75.872l-5.12 2.621-2.43 1.297-0.137 0.082-12.971 42.462zM545.706 714.687c-2.423-4.271-3.85-9.38-3.85-14.824 0-0.030 0-0.060 0-0.090v0.005c0-11.865 6.724-22.193 16.657-27.511l0.164-0.089-12.971 42.51z" />
<glyph unicode="&#xe908;" glyph-name="arrow-alt-up" d="M512.15 103.184c-17.674 0-31.997 14.036-31.997 31.348v626.941c0 17.306 14.322 31.341 31.997 31.341 17.681 0 32.003-14.036 32.003-31.341v-626.941c0-17.312-14.329-31.348-32.003-31.348zM239.896 481.020c-10.083 5.407-16.807 15.729-16.807 27.58 0 5.461 1.42 10.581 3.919 15.046l-0.082-0.164 0.123 0.253 0.341 0.621 1.283 2.26 4.861 8.397c26.801 45.759 53.391 84.671 82.398 121.672l-1.925-2.546c25.463 32.515 55.637 66.205 87.934 92.078 31.573 25.286 69.55 46.599 110.121 46.599 40.578 0 78.595-21.313 110.169-46.606 32.338-25.825 62.505-59.556 88.016-92.112 29.054-36.946 57.283-78.602 82.493-122.15l2.847-5.325 1.277-2.26 0.341-0.628 0.13-0.253c2.253-4.185 3.577-9.148 3.577-14.404 0-17.319-14.322-31.348-31.997-31.348-0.041 0-0.090 0-0.139 0-11.734 0-21.997 6.294-27.598 15.691l-0.081 0.147-0.082 0.157-0.041 0.082-0.259 0.457-1.106 1.966c-9.807 17.488-17.696 30.481-25.909 43.246l2.084-3.46 2.574-4.349c-20.562 32.741-39.977 60.225-60.689 86.678l1.809-2.417c-24.064 30.679-50.77 60.191-77.735 81.756-27.696 22.153-51.289 32.433-69.68 32.433-18.343 0-41.936-10.281-69.632-32.433-26.877-21.572-53.63-51.077-77.647-81.756-27.266-34.679-53.774-73.796-77.455-114.688l-2.676-5.011-1.065-1.925-0.259-0.457-0.082-0.13-43.349-12.698zM239.896 481.020c4.374-2.378 9.578-3.775 15.109-3.775 0.040 0 0.081 0 0.121 0h-0.006c0.040 0 0.087 0 0.134 0 11.926 0 22.334 6.504 27.868 16.159l0.083 0.157 0.082 0.164-43.39-12.704z" />
<glyph unicode="&#xe909;" glyph-name="arrow-down" d="M512.053 826.338c17.674 0 32.003-14.036 32.003-31.348v-374.074c0-17.312-14.336-31.348-32.003-31.348-17.674 0-32.003 14.036-32.003 31.348v374.074c0 17.312 14.336 31.348 32.003 31.348zM709.685 431.449c5.55-2.301 13.1-5.98 19.326-12.124 8.875-8.649 11.776-19.224 12.677-26.87 0.847-7.735 0.123-15.428-1.072-22.153-2.471-13.503-7.851-28.843-14.507-44.305-13.524-31.348-34.727-69.004-58.115-105.076-23.463-36.031-49.917-71.721-74.534-98.72-11.029-12.423-22.853-23.612-35.579-33.713l-0.575-0.441-0.546-0.41c-10.445-7.864-26.365-17.975-44.455-17.975-17.92 0-33.874 9.905-44.373 17.681-13.544 10.495-25.552 21.62-36.519 33.709l-0.209 0.234-0.259 0.287c-24.835 26.747-51.63 62.191-75.312 98.092-23.634 35.901-45.008 73.564-58.45 105.247-6.615 15.633-11.947 31.266-14.124 45.22-0.71 3.901-1.115 8.391-1.115 12.975 0 3.61 0.252 7.161 0.738 10.636l-0.046-0.401-0.048-0.389c1.415 10.382 6.109 19.472 12.986 26.387l-0.016-0.016c5.399 5.060 11.737 9.198 18.713 12.114l0.415 0.154 0.41 0.15c5.356 2.324 11.81 4.504 18.468 6.172l0.899 0.191 0.949 0.198c13.913 3.427 30.857 6.328 48.148 8.096l1.638 0.137c34.987 3.652 75.571 5.734 116.668 5.734 4.096 0 8.206-0.014 12.302-0.055h0.601c44.517 0 88.474-2.369 131.741-6.984l-5.352 0.464c18.261-2.089 35.116-4.724 48.852-8.11 6.827-1.673 13.612-3.673 19.668-6.144h0.007zM346.93 376.406c1.454-6.69 4.485-15.886 9.393-27.423 11.435-26.999 30.672-61.269 53.077-95.293 22.391-33.976 47.104-66.458 68.949-89.982 10.964-11.831 20.521-20.692 28.16-26.337 2.471-1.795 4.349-3.004 5.714-3.802 2.2 1.332 4.056 2.607 5.836 3.974l-0.15-0.11-0.137-0.102c7.55 5.687 17.019 14.63 27.901 26.583 21.634 23.784 46.080 56.511 68.314 90.699 22.269 34.27 41.465 68.71 53.111 95.71 3.297 7.1 6.499 15.729 9.059 24.617l0.328 1.338-2 0.505c-11.25 2.69-25.108 5.031-39.219 6.519l-1.488 0.123c-35.751 3.891-77.21 6.103-119.194 6.103h-1.297c-3.4 0.037-7.417 0.058-11.438 0.058-40.235 0-79.981-2.089-119.138-6.164l9.621 0.802c-17.067-1.884-30.979-4.185-41.131-6.69l-4.267-1.126z" />
<glyph unicode="&#xe90a;" glyph-name="arrow-down-square" d="M512 650.129c-17.674 0-32.003-14.036-32.003-31.348v-341.559c0-17.312 14.336-31.348 32.003-31.348 17.674 0 32.003 14.036 32.003 31.348v341.559c0 17.312-14.336 31.348-32.003 31.348zM352.427 465.884h-0.355c-17.674 0-31.997-14.029-31.997-31.341 0-6.519 2.028-12.575 5.502-17.585l-0.068 0.109s27.559-40.373 62.287-81.251c17.408-20.439 36.611-41.049 56.32-57.685 19.627-16.671 38.4-32.263 67.884-32.263 29.443 0 48.217 15.51 67.925 32.188 19.668 16.63 38.83 37.321 56.231 57.754 19.477 22.811 39.181 48.075 57.768 74.189l2.273 3.362 2.471 3.707c3.397 4.863 5.427 10.9 5.427 17.41 0 0.023 0 0.047 0 0.070v-0.004c0 17.312-14.329 31.355-32.010 31.355-11.025 0-20.753-5.461-26.508-13.783l-0.068-0.109s-26.242-38.243-58.457-76.022c-16.043-18.896-33.71-37.615-48.893-50.449-15.189-12.834-29.491-16.971-26.16-16.971 3.325 0-10.882 4.137-26.071 16.971-15.189 12.868-32.768 31.471-48.852 50.36-32.126 37.82-58.409 76.070-58.409 76.070-5.833 8.38-15.381 13.821-26.206 13.919h-0.035zM512 865.96c-151.552 0-260.178-24.535-330.923-93.785-70.697-69.297-95.744-175.718-95.744-324.178s25.047-254.874 95.744-324.171c70.738-69.25 179.371-93.785 330.923-93.785s260.178 24.535 330.923 93.792c70.704 69.297 95.744 175.712 95.744 324.171s-25.047 254.867-95.744 324.171c-70.738 69.257-179.371 93.785-330.923 93.785zM512 803.271c144.425 0 233.049-23.866 285.655-75.441 52.688-51.541 77.012-138.349 77.012-279.825s-24.364-228.291-77.012-279.825c-52.606-51.616-141.23-75.441-285.655-75.441s-233.042 23.866-285.655 75.441c-52.688 51.535-77.005 138.342-77.005 279.825 0 141.476 24.358 228.284 77.005 279.825 52.613 51.603 141.23 75.428 285.655 75.428z" />
<glyph unicode="&#xe90b;" glyph-name="arrow-left" d="M898.215 447.93c0-17.312-14.329-31.348-31.997-31.348h-381.87c-17.674 0-31.997 14.036-31.997 31.348s14.322 31.341 31.997 31.341h381.87c17.667 0 31.997-14.029 31.997-31.341zM495.1 254.326c-2.348-5.434-6.103-12.827-12.37-18.93-7.183-6.83-16.609-11.361-27.064-12.382l-0.188-0.015-0.184-0.014c-2.296-0.231-4.962-0.363-7.659-0.363-5.468 0-10.809 0.542-15.973 1.576l0.517-0.086 0.505-0.082c-17.19 3.509-32.311 8.41-46.626 14.759l1.393-0.553c-31.997 13.251-70.479 34.024-107.22 56.934-36.816 22.985-73.216 48.886-100.816 73.004-12.736 10.852-24.151 22.441-34.495 34.949l-0.376 0.468-0.416 0.526c-8.021 10.24-18.343 25.832-18.343 43.554 0 17.558 10.103 33.184 18.043 43.465 9.093 11.79 21.333 24.119 34.953 36.236 27.307 24.33 63.488 50.579 100.134 73.776 36.652 23.149 75.093 44.093 107.431 57.255 15.961 6.485 31.915 11.708 46.169 13.838 7.127 1.092 15.189 1.673 23.293 0.457 8.151-1.167 18.432-4.39 26.924-12.704 6.233-6.103 10.117-13.38 12.677-19.142 2.731-6.185 4.902-12.957 6.697-19.9 3.584-13.831 6.315-30.631 8.404-48.77 4.144-36.407 5.973-81.374 5.803-125.72v-1.147c0-43.636-2.417-86.712-7.127-129.113l0.478 5.243c-2.137-17.886-4.826-34.4-8.281-47.855-1.707-6.69-3.755-13.332-6.281-19.265v-0.007zM438.917 609.681c-6.827-1.427-16.213-4.39-28.030-9.202-27.525-11.196-62.512-30.051-97.28-51.992-34.645-21.941-67.755-46.148-91.819-67.543-9.673-8.336-18.366-17.221-26.258-26.792l-0.298-0.372-0.328-0.423c-1.218-1.539-2.447-3.275-3.582-5.077l-0.146-0.248-0.15-0.273c0.806-1.297 2.048-3.14 3.837-5.434 5.803-7.4 14.93-16.678 27.136-27.334 24.276-21.19 57.685-45.138 92.59-66.915 34.987-21.818 70.144-40.619 97.703-52.040 10.964-4.506 19.838-7.523 26.494-9.189l0.512 1.959c2.751 11.025 5.14 24.596 6.656 38.42l0.137 1.454c3.959 35.028 6.226 75.639 6.226 116.77v1.263c0.037 3.329 0.059 7.263 0.059 11.202 0 39.417-2.132 78.336-6.286 116.648l0.417-4.745 0.389-4.615c-1.918 16.725-4.267 30.345-6.827 40.291-0.551 2.299-1.018 3.96-1.53 5.601l0.172-0.638 0.205-0.778z" />
<glyph unicode="&#xe90c;" glyph-name="arrow-left-square" d="M718.336 447.997c0 17.319-14.329 31.355-32.003 31.355h-348.672c-17.667 0-31.997-14.036-31.997-31.348s14.329-31.348 31.997-31.348h348.672c17.674 0 32.003 14.036 32.003 31.348zM530.261 604.327v0.341c0 17.319-14.329 31.355-31.997 31.355-0.020 0-0.044 0-0.067 0-6.663 0-12.856-2.014-18.003-5.467l0.117 0.074 0.116 0.068s-41.219-26.999-82.944-61.024c-20.862-17.053-41.902-35.86-58.88-55.166-17.026-19.231-32.939-37.615-32.939-66.499 0-28.843 15.831-47.234 32.85-66.54 16.978-19.272 38.147-38.038 58.969-55.091 24.021-19.651 51.050-39.778 78.968-58.689l3.976-2.539c4.989-3.333 11.125-5.318 17.724-5.318 0.038 0 0.075 0 0.113 0h-0.006c17.681 0 32.017 14.036 32.017 31.355 0 10.807-5.584 20.33-14.063 25.969l-0.116 0.068s-39.049 25.709-77.619 57.262c-19.285 15.715-38.4 33.021-51.5 47.903s-17.319 28.877-17.319 25.62c0-3.263 4.219 10.656 17.319 25.532 13.141 14.882 32.126 32.106 51.412 47.855 38.618 31.471 77.653 57.221 77.653 57.221 8.527 5.646 14.083 15.025 14.213 25.689v0.020zM938.667 447.997c0 148.46-25.047 254.867-95.744 324.171-70.738 69.263-179.371 93.792-330.923 93.792s-260.178-24.535-330.923-93.785c-70.697-69.297-95.744-175.718-95.744-324.178s25.047-254.874 95.744-324.171c70.738-69.25 179.371-93.785 330.923-93.785s260.178 24.535 330.923 93.792c70.704 69.297 95.744 175.712 95.744 324.171zM874.667 447.997c0-141.483-24.364-228.291-77.012-279.825-52.606-51.61-141.23-75.435-285.655-75.435s-233.042 23.866-285.648 75.441c-52.702 51.535-77.018 138.342-77.018 279.825 0 141.476 24.364 228.284 77.012 279.825 52.613 51.603 141.23 75.428 285.655 75.428s233.049-23.859 285.655-75.435c52.695-51.541 77.012-138.349 77.012-279.825z" />
<glyph unicode="&#xe90d;" glyph-name="arrow-right" d="M125.782 448.050c0 17.312 14.329 31.348 32.003 31.348h381.863c17.674 0 32.003-14.036 32.003-31.348s-14.336-31.341-32.003-31.341h-381.87c-17.667 0-31.997 14.029-31.997 31.341zM528.897 641.655c2.348 5.434 6.103 12.834 12.377 18.93 7.181 6.825 16.601 11.355 27.049 12.382l0.189 0.015 0.191 0.020c2.297 0.232 4.964 0.364 7.661 0.364 5.467 0 10.807-0.542 15.97-1.576l-0.516 0.086-0.498 0.075c13.776-2.423 29.437-7.687 45.227-14.213 31.997-13.244 70.438-33.976 107.261-56.921 36.782-22.992 73.175-48.899 100.782-73.018 13.735-11.994 26.064-24.201 35.28-35.949 8.028-10.24 18.35-25.825 18.35-43.547 0-17.551-10.11-33.143-18.050-43.465-9.086-11.79-21.333-24.119-34.939-36.243-27.307-24.323-63.488-50.572-100.14-73.769-36.652-23.156-75.134-44.093-107.438-57.255-15.954-6.479-31.915-11.708-46.162-13.838-3.982-0.698-8.568-1.098-13.247-1.098-3.684 0-7.31 0.248-10.863 0.727l0.414-0.046 0.396-0.048c-10.527 1.35-19.791 5.947-26.953 12.738l0.021-0.020 0.007-0.007c-5.162 5.277-9.38 11.502-12.368 18.386l-0.153 0.395-0.15 0.403c-2.372 5.25-4.592 11.546-6.299 18.050l-0.193 0.867-0.205 0.935c-3.502 13.626-6.458 30.228-8.26 47.165l-0.143 1.611c-3.734 34.27-5.864 74.028-5.864 114.278 0 4.028 0.020 8.042 0.068 12.056l-0.007-0.614c0.171 44.346 2.389 89.068 6.656 125.017 2.13 17.927 4.82 34.393 8.274 47.855 1.707 6.69 3.755 13.332 6.281 19.265h-0.007zM585.087 286.306c6.827 1.42 16.213 4.383 27.989 9.189 27.566 11.203 62.553 30.051 97.28 51.999 34.693 21.941 67.843 46.148 91.86 67.543 12.076 10.738 21.122 20.105 26.883 27.58 1.249 1.604 2.529 3.432 3.719 5.322l0.166 0.282c-1.35 2.137-2.65 3.954-4.041 5.694l0.096-0.124 0.102-0.137c-8.265 9.91-17.054 18.778-26.546 26.845l-0.59 0.489c-24.276 21.19-57.685 45.138-92.583 66.915-34.987 21.818-70.144 40.619-97.71 52.040-6.875 3.12-15.224 6.144-23.828 8.558l-1.294 0.31-1.372 0.321-0.512-1.959c-2.751-11.011-5.134-24.569-6.656-38.38l-0.13-1.454c-3.884-33.021-6.055-75.278-6.226-118.074-0.037-3.315-0.058-7.232-0.058-11.154 0-39.434 2.134-78.369 6.292-116.697l-0.418 4.745-0.403 4.615c1.925-16.725 4.273-30.345 6.827-40.291l1.161-4.178z" />
<glyph unicode="&#xe90e;" glyph-name="arrow-right-square" d="M295.991 447.996c0-18.117 15.001-32.81 33.503-32.81h365.017c18.503 0 33.497 14.694 33.497 32.818s-14.993 32.818-33.497 32.818h-365.017c-18.51 0-33.503-14.694-33.503-32.818zM492.882 284.359v-0.364c0-18.124 15.001-32.818 33.503-32.818 6.961 0 13.428 2.080 18.788 5.646l-0.121-0.071s43.151 28.265 86.832 63.877c21.847 17.852 43.866 37.541 61.64 57.759 17.824 20.125 34.483 39.378 34.483 69.609 0 30.195-16.565 49.455-34.39 69.665-17.774 20.168-39.886 39.814-61.733 57.673-43.681 35.697-86.832 64.098-86.832 64.098-5.223 3.489-11.646 5.567-18.555 5.567-0.040 0-0.078 0-0.118 0h0.007c-18.51 0-33.518-14.7-33.518-32.824 0-11.314 5.845-21.29 14.722-27.192l0.121-0.071s40.879-26.907 81.257-59.946c20.189-16.452 40.2-34.561 53.914-50.141s18.131-30.231 18.131-26.821c0 3.409-4.417-11.155-18.131-26.736-13.757-15.58-33.632-33.603-53.822-50.098-40.428-32.946-81.293-59.903-81.293-59.903-8.927-5.903-14.743-15.723-14.879-26.886v-0.021zM65.332 447.996c0-155.42 26.221-266.821 100.232-339.367 74.054-72.496 187.779-98.182 346.436-98.182s272.374 25.686 346.436 98.189c74.019 72.545 100.232 183.949 100.232 339.367s-26.221 266.814-100.232 339.367c-74.054 72.504-187.779 98.182-346.436 98.182s-272.374-25.686-346.436-98.182c-74.011-72.545-100.232-183.955-100.232-339.374zM132.332 447.996c0 148.108 25.506 238.985 80.622 292.942 55.072 54.030 147.85 78.971 299.046 78.971s243.966-24.977 299.038-78.971c55.166-53.957 80.628-144.835 80.628-292.942 0-148.115-25.506-238.992-80.628-292.942-55.065-54.030-147.843-78.971-299.038-78.971s-243.966 24.985-299.046 78.977c-55.158 53.95-80.622 144.827-80.622 292.942z" />
<glyph unicode="&#xe90f;" glyph-name="arrow-up" d="M511.931 69.66c-17.674 0-31.997 14.036-31.997 31.348v374.074c0 17.312 14.322 31.348 31.997 31.348s32.003-14.036 32.003-31.348v-374.074c0-17.312-14.336-31.348-32.003-31.348zM314.299 464.548c-7.492 2.948-13.917 7.058-19.388 12.176l0.034-0.031 0.027-0.020c-6.928 6.95-11.555 16.198-12.64 26.5l-0.016 0.192-0.014 0.184c-0.235 2.247-0.37 4.854-0.37 7.492 0 5.363 0.555 10.597 1.61 15.647l-0.086-0.495-0.089-0.492c2.478 13.496 7.892 28.836 14.507 44.305 13.524 31.341 34.686 69.004 58.115 105.028 23.463 36.072 49.917 71.721 74.534 98.761 12.247 13.462 24.747 25.539 36.693 34.57 10.452 7.851 26.371 17.975 44.462 17.975 17.92 0 33.874-9.905 44.373-17.681 12.029-8.902 24.617-20.896 36.994-34.236 24.829-26.747 51.623-62.191 75.298-98.099 23.641-35.895 45.022-73.591 58.457-105.233 6.615-15.633 11.947-31.307 14.165-45.227 1.072-6.977 1.625-14.923 0.43-22.822-1.415-10.38-6.109-19.467-12.986-26.38l0.002 0.002 0.014 0.007c-6.233-6.103-13.653-9.946-19.545-12.411-5.605-2.389-12.377-4.642-19.354-6.362l-0.956-0.205c-13.913-3.427-30.857-6.328-48.148-8.096l-1.638-0.137c-34.987-3.652-75.571-5.734-116.668-5.734-4.103 0-8.206 0.014-12.302 0.055h-0.478c-44.564 0-88.562 2.369-131.871 6.984l5.359-0.464c-19.657 2.032-37.209 5.079-54.336 9.214l2.768-0.564 2.717-0.546c-8.023 1.868-14.895 4.092-21.51 6.814l0.921-0.335 0.922-0.328h-0.007zM677.055 519.599c-2.706 10.982-6.069 20.482-10.236 29.537l0.419-1.015 0.43-1.065c-11.435 26.972-30.686 61.242-53.077 95.307-22.405 33.929-47.104 66.369-68.949 89.941-8.473 9.43-17.541 17.95-27.28 25.661l-0.457 0.349-0.43 0.321c-1.55 1.179-3.323 2.382-5.159 3.491l-0.275 0.154-0.273 0.157c-2.194-1.34-4.049-2.628-5.827-4.010l0.278 0.207c-10.165-8.122-19.215-16.725-27.478-26.043l-0.197-0.226-0.232-0.273c-21.634-23.777-46.080-56.504-68.308-90.692-22.269-34.27-41.472-68.717-53.118-95.71-3.197-6.773-6.281-14.944-8.748-23.377l-0.311-1.24-0.328-1.345 2-0.498c9.987-2.471 23.77-4.724 40.707-6.649 33.703-3.802 76.8-5.939 120.491-6.103 3.4-0.037 7.417-0.058 11.438-0.058 40.235 0 79.981 2.089 119.138 6.164l-4.897-0.413-4.717-0.382c17.067 1.877 30.973 4.178 41.131 6.69l4.267 1.126z" />
<glyph unicode="&#xe910;" glyph-name="arrow-up-square" d="M512 245.873c-17.674 0-31.997 14.036-31.997 31.348v341.559c0 17.312 14.322 31.348 31.997 31.348s32.003-14.036 32.003-31.348v-341.559c0-17.312-14.336-31.348-32.003-31.348zM352.427 430.111h-0.355c-17.674 0-31.997 14.036-31.997 31.348 0 6.513 2.028 12.561 5.502 17.579l-0.068-0.109s27.559 40.373 62.287 81.251c17.408 20.439 36.611 41.049 56.32 57.685 19.627 16.671 38.4 32.263 67.884 32.263 29.443 0 48.217-15.51 67.925-32.188 19.668-16.63 38.83-37.362 56.238-57.754 20.329-23.892 40.847-50.365 60.159-77.75l2.346-3.507c3.4-4.902 5.427-10.957 5.427-17.476 0-17.312-14.329-31.348-32.010-31.348-0.037 0-0.080 0-0.124 0-10.88 0-20.498 5.404-26.316 13.674l-0.068 0.102-0.068 0.109s-26.242 38.243-58.457 76.022c-16.043 18.896-33.71 37.615-48.893 50.449-15.189 12.834-29.491 16.971-26.16 16.971s-10.882-4.137-26.071-16.971c-15.189-12.868-32.768-31.471-48.852-50.36-32.126-37.82-58.409-76.070-58.409-76.070-5.833-8.38-15.381-13.821-26.206-13.919h-0.035zM512 30.041c-151.552 0-260.178 24.535-330.923 93.792-70.697 69.291-95.744 175.705-95.744 324.164s25.047 254.874 95.744 324.171c70.738 69.257 179.371 93.792 330.923 93.792s260.178-24.535 330.923-93.792c70.704-69.291 95.744-175.712 95.744-324.171s-25.047-254.867-95.744-324.164c-70.738-69.263-179.371-93.792-330.923-93.792zM512 92.73c144.425 0 233.049 23.866 285.655 75.441 52.688 51.535 77.012 138.349 77.012 279.825 0 141.483-24.364 228.284-77.012 279.825-52.606 51.61-141.23 75.435-285.655 75.435s-233.042-23.866-285.655-75.435c-52.688-51.541-77.005-138.349-77.005-279.825 0-141.483 24.358-228.291 77.005-279.825 52.613-51.616 141.23-75.435 285.655-75.435v-0.007z" />
<glyph unicode="&#xe911;" glyph-name="bag" d="M295.287 664.19c0.553 116.613 97.191 210.944 216.317 210.944h0.86c119.453-0.027 216.276-94.891 216.276-211.907 0-17.312-14.329-31.348-32.003-31.348-17.667 0-31.997 14.036-31.997 31.348 0 82.398-68.198 149.21-152.323 149.21h-0.812c-83.872 0-151.907-66.403-152.317-148.466v-0.751c0-17.312-14.329-31.341-32.003-31.341-17.667 0-31.997 14.029-31.997 31.341v0.963zM603.423 474.975c0 17.312 14.329 31.348 32.003 31.348h1.959c17.681 0 32.003-14.036 32.003-31.348s-14.329-31.348-32.003-31.348h-1.959c-17.674 0-32.003 14.036-32.003 31.348zM354.638 474.975c0 17.312 14.322 31.348 31.997 31.348h1.966c17.667 0 31.997-14.036 31.997-31.348s-14.329-31.348-31.997-31.348h-1.966c-17.674 0-32.003 14.036-32.003 31.348zM206.882 581.178c-48.039-38.325-65.707-100.687-35.97-208.725 15.66-56.846 28.931-102.946 44.25-140.937 15.223-37.704 31.744-65.372 52.77-86.098 41.008-40.38 107.056-61.863 244.053-61.863 137.011 0 203.052 21.484 244.060 61.863 21.033 20.726 37.547 48.394 52.777 86.098 15.36 37.99 28.59 84.091 44.244 140.937 29.778 108.039 12.076 170.4-35.97 208.725-52.777 42.175-151.081 63.863-305.063 63.863-154.030 0-252.375-21.729-305.152-63.863zM166.475 629.784c71.55 57.139 190.464 77.961 345.518 77.961 155.047 0 273.961-20.821 345.552-77.961 76.336-60.935 90.112-154.638 57.303-273.674-15.49-56.34-29.607-105.868-46.503-147.627-16.944-42.045-37.465-78.24-66.901-107.247-59.993-59.057-148.78-80.37-289.451-80.37-140.677 0-229.465 21.313-289.41 80.37-29.443 29.007-49.964 65.201-66.942 107.247-16.862 41.8-30.979 91.286-46.51 147.627l57.344 273.681zM166.475 629.784c-76.37-60.935-90.112-154.638-57.344-273.674l57.344 273.681z" />
<glyph unicode="&#xe912;" glyph-name="bag-alt" d="M318.68 681.38c2.499 102.714 88.091 185.044 193.311 185.044 105.52 0 191.304-82.801 193.331-185.692v-126.915c0-17.312-14.322-31.348-31.997-31.348-17.681 0-32.003 14.036-32.003 31.348v127.106c0 69.967-57.897 126.682-129.324 126.682-71.318 0-129.147-56.552-129.318-126.375v-127.399c0-17.312-14.329-31.348-32.003-31.348s-31.997 14.036-31.997 31.348v127.549zM231.080 561.715c-48.51-37.192-71.885-98.679-71.885-205.797 0-107.124 23.375-168.605 71.885-205.81 50.947-39.035 137.305-57.842 280.917-57.842 143.619 0 229.977 18.807 280.917 57.842 48.517 37.199 71.892 98.639 71.892 205.804 0 107.124-23.375 168.605-71.892 205.81-50.941 39.035-137.298 57.883-280.917 57.883-143.613 0-229.97-18.807-280.917-57.89zM191.656 611.038c69.291 53.166 175.363 71.264 320.341 71.264s251.051-18.097 320.341-71.223c71.769-55.002 96.474-141.059 96.474-255.16 0-114.108-24.753-200.165-96.433-255.167-69.332-53.125-175.357-71.175-320.375-71.175-144.985 0-251.057 18.050-320.348 71.175-71.762 55.002-96.468 141.018-96.468 255.16 0 114.108 24.747 200.158 96.427 255.167l0.041-0.041z" />
<glyph unicode="&#xe913;" glyph-name="bookmark" d="M333.725 564.289c0 17.306 14.322 31.341 31.997 31.341h292.482c17.674 0 32.003-14.036 32.003-31.341 0-17.312-14.336-31.348-32.003-31.348h-292.482c-17.674 0-31.997 14.029-31.997 31.348zM340.845 864.799c46.080 9.196 102.83 11.619 171.145 11.619 68.349 0 125.092-2.383 171.172-11.619 46.64-9.366 85.081-26.249 113.923-57.262 28.583-30.597 44.414-71.475 53.548-122.088 9.045-50.572 11.947-114.019 11.947-192.676 0-30.345 0-58.846 0.082-85.6 0.212-126.389 0.382-213.327-5.461-270.001-3.413-33.853-9.428-62.525-22.61-83.176-6.99-11.089-16.552-19.969-27.879-25.955l-0.397-0.191-0.396-0.184c-10.233-5.099-22.29-8.083-35.044-8.083-0.638 0-1.274 0.007-1.908 0.022l0.094-0.002 0.075-0.007c-27.648 0-54.525 14.923-76.158 29.676-21.163 14.377-43.431 33.021-64.471 50.661l-4.983 4.178c-23.258 19.436-45.104 37.369-65.584 50.572-21.251 13.626-36.222 18.896-45.95 18.896s-24.665-5.27-45.916-18.937c-20.48-13.162-42.325-31.095-65.577-50.572l-4.99-4.178c-21.074-17.558-43.308-36.243-64.471-50.62-21.675-14.752-48.51-29.669-76.199-29.669-12.117 0-24.747 2.041-36.734 8.021-11.824 6.133-21.474 15.005-28.36 25.81l-0.176 0.295-0.177 0.307c-13.148 20.61-19.162 49.323-22.617 83.176-5.803 56.634-5.673 143.565-5.42 270.001l0.089 85.559c0 78.657 2.854 142.104 11.947 192.676 9.079 50.654 24.958 91.491 53.501 122.129 28.884 30.925 67.331 47.855 113.923 57.221h0.034zM236.363 674.581c-8.062-44.892-10.964-103.779-10.964-181.815 0-31.095 0-60.061-0.089-87.020-0.205-126.478-0.382-209.108 5.12-262.315 3.331-32.761 8.451-48.729 13.189-56.17 1.877-2.929 3.113-3.598 3.584-3.802 1.866-0.772 4.033-1.221 6.305-1.221 0.472 0 0.939 0.019 1.401 0.057l-0.061-0.004-0.055-0.007c6.362 0 18.951 4.349 39.683 18.48 18.391 12.534 38.311 29.17 60.163 47.439l4.267 3.55c22.781 19.060 47.609 39.622 71.98 55.296 23.634 15.21 51.835 29.211 81.060 29.211 29.273 0 57.433-13.995 81.067-29.211 24.405-15.674 49.241-36.236 72.021-55.296l4.267-3.557c21.845-18.302 41.731-34.939 60.163-47.479 20.733-14.083 33.28-18.432 39.677-18.432 0.372-0.029 0.806-0.045 1.243-0.045 2.33 0 4.552 0.463 6.578 1.302l-0.114-0.042-0.109-0.041c0.423 0.205 1.707 0.874 3.584 3.802 4.69 7.441 9.81 23.409 13.182 56.177 5.461 53.2 5.332 135.83 5.12 262.308-0.082 24.972-0.13 54.511-0.13 84.070v2.949c0 78.029-2.901 136.922-10.964 181.815-8.021 44.762-20.692 72.431-37.717 90.692-16.725 17.934-40.878 30.345-79.531 38.079-39.253 7.898-90.412 10.363-158.297 10.363-67.966 0-119.125-2.505-158.331-10.363-38.659-7.735-62.846-20.145-79.531-38.038-17.067-18.302-29.696-45.971-37.758-90.733z" />
<glyph unicode="&#xe914;" glyph-name="buy" d="M125.657 836.423c2.362 15.23 15.633 26.761 31.655 26.761 1.673 0 3.318-0.123 4.915-0.362l-0.177 0.020v-0.041h0.3l0.43-0.082 1.236-0.205 3.884-0.758c19.149-4.151 36.079-11.025 51.337-20.296l-0.696 0.396c28.72-17.34 59.139-49.78 58.027-103.779 0.089-5.345 0.137-10.82 0.089-16.384 105.731 22.364 219.348 32.604 317.099 29.928 55.043-1.55 106.073-7.236 148.268-17.64 40.96-10.158 78.759-25.955 101.676-51.494 21.456-23.948 35.151-58.805 43.52-95 8.527-36.987 12.24-78.916 11.346-120.245-0.894-41.254-6.485-83.053-17.237-119.535-10.54-35.779-27.136-70.096-52.736-92.495-25.73-22.569-67.925-36.782-112.299-45.814-45.95-9.359-99.929-14.295-154.324-14.671-54.361-0.416-110.080 3.68-159.532 12.752-48.599 8.943-94.42 23.32-126.293 45.554-35.71 24.917-55.637 61.775-66.478 101.649-10.752 39.581-13.175 84.466-12.24 129.188 0.853 41.131 4.567 83.886 8.062 124.136l0.942 10.991c3.837 44.052 6.95 84.262 6.096 118.286v1.632c0.73 26.16-12.288 40.332-27.6 49.609-9.096 5.541-19.687 9.765-30.976 12.070l-1.28 0.218h-0.259c-15.442 2.403-27.109 15.36-27.109 30.979 0 1.652 0.137 3.27 0.382 4.847l-0.027-0.177v-0.041zM273.707 656.827c-2.138-31.852-4.067-54.9-6.28-77.865l0.866 11.121 0.976 12.957c-3.536-40.666-7.079-81.463-7.892-120.375-0.853-42.462 1.666-80.582 10.158-111.889 8.404-31.014 22.016-52.907 41.725-66.662 20.61-14.377 55.555-26.665 100.994-35.021 44.633-8.192 96.126-12.083 147.203-11.708 51.152 0.416 100.857 5.018 141.776 13.38 42.455 8.649 70.274 20.309 82.691 31.177 12.588 10.991 24.747 32.181 33.922 63.147 8.916 30.222 13.906 66.458 14.718 103.533 0.853 37.028-2.56 73.81-9.817 105.076-7.339 32.017-17.961 54.955-29.136 67.413-9.776 10.868-31.792 22.822-69.25 32.058-36.27 8.984-82.302 14.295-134.444 15.756-97.58 2.717-212.951-8.356-318.205-32.099zM573.568 502.892c0 17.312 14.336 31.348 32.003 31.348h118.313c17.674 0 32.003-14.036 32.003-31.348s-14.329-31.348-32.003-31.348h-118.306c-17.681 0-32.003 14.036-32.003 31.348zM311.513 109.724c12.834-0.014 23.238-10.206 23.238-22.781 0-12.582-10.411-22.781-23.258-22.781h-0.020c-12.834 0.014-23.231 10.206-23.231 22.781 0 12.582 10.411 22.781 23.252 22.781h0.020zM311.513 78.376c4.833 0 8.752 3.837 8.752 8.567s-3.919 8.567-8.752 8.567c-4.826 0-8.738-3.837-8.738-8.567s3.912-8.567 8.738-8.567zM256.264 86.985c0.020 29.873 24.747 54.081 55.248 54.081 30.515 0 55.255-24.228 55.255-54.122v-0.041c-0.027-29.873-24.753-54.088-55.255-54.088-30.515 0-55.248 24.235-55.248 54.129v0.041zM752.345 109.724c12.848 0 23.258-10.199 23.258-22.781s-10.411-22.781-23.258-22.781c-12.841 0-23.252 10.199-23.252 22.781s10.411 22.781 23.252 22.781zM752.345 78.376c4.833 0 8.752 3.837 8.752 8.567s-3.919 8.567-8.752 8.567c-4.826 0-8.745-3.837-8.745-8.567s3.919-8.567 8.745-8.567zM697.137 86.985c-0.013 0.419-0.021 0.913-0.021 1.408 0 0.019 0 0.037 0 0.056v-0.003c0 29.894 24.74 54.122 55.255 54.122s55.248-24.228 55.248-54.122c0-0.546-0.007-1.085-0.020-1.625v0.082c-0.020-29.88-24.753-54.088-55.255-54.088-30.515 0-55.248 24.235-55.248 54.129v0.041h0.041z" />
<glyph unicode="&#xe915;" glyph-name="calendar" d="M225.472 698.357c-52.347-51.282-77.216-137.093-77.216-280.699 0-143.613 24.87-229.376 77.223-280.665 52.361-51.241 139.906-75.605 286.508-75.605s234.196 24.364 286.549 75.653c52.306 51.241 77.182 137.004 77.182 280.617 0 143.654-24.876 229.417-77.223 280.699-52.313 51.241-139.906 75.571-286.515 75.571-146.596 0-234.155-24.33-286.502-75.571zM180.245 742.662c71.257 69.885 181.589 93.949 331.735 93.949 150.187 0 260.437-24.071 331.776-93.955 71.339-69.837 95.956-177.882 95.956-325.004s-24.617-255.126-95.956-325.004c-71.339-69.803-181.63-93.962-331.776-93.962-150.187 0-260.437 24.119-331.776 94.003-71.298 69.844-95.915 177.889-95.915 324.97 0 147.115 24.617 255.201 95.915 325.004h0.041zM96.031 561.933c0 17.312 14.329 31.348 32.003 31.348h768.335c17.674 0 32.003-14.036 32.003-31.348 0-17.306-14.329-31.341-32.003-31.341h-768.348c-17.667 0-31.997 14.029-31.997 31.341zM667.887 397.383c0 17.312 14.322 31.348 31.997 31.348h0.43c17.674 0 31.997-14.036 31.997-31.348s-14.322-31.348-31.997-31.348h-0.43c-17.674 0-31.997 14.036-31.997 31.348zM480.236 397.383c0 17.312 14.329 31.348 32.003 31.348h0.341c17.667 0 31.997-14.036 31.997-31.348s-14.329-31.348-32.003-31.348h-0.382c-17.667 0-31.997 14.036-31.997 31.348h0.041zM292.12 397.383c0 17.312 14.329 31.348 32.003 31.348h0.423c17.674 0 32.003-14.036 32.003-31.348s-14.336-31.348-32.003-31.348h-0.43c-17.667 0-31.997 14.036-31.997 31.348zM667.887 236.39c0 17.312 14.322 31.341 31.997 31.341h0.43c17.674 0 31.997-14.029 31.997-31.341s-14.322-31.348-31.997-31.348h-0.43c-17.674 0-31.997 14.036-31.997 31.348zM480.236 236.39c0 17.312 14.329 31.341 32.003 31.341h0.341c17.667 0 31.997-14.029 31.997-31.341s-14.329-31.348-32.003-31.348h-0.382c-17.667 0-31.997 14.036-31.997 31.348h0.041zM292.12 236.39c0 17.312 14.329 31.341 32.003 31.341h0.423c17.674 0 32.003-14.029 32.003-31.341s-14.336-31.348-32.003-31.348h-0.43c-17.667 0-31.997 14.036-31.997 31.348zM683.029 897.307c17.674 0 32.003-14.036 32.003-31.348v-136.342c0-17.306-14.329-31.341-32.003-31.341-17.667 0-31.997 14.036-31.997 31.341v136.349c0 17.312 14.329 31.348 31.997 31.348zM341.354 897.307c17.681 0 32.003-14.036 32.003-31.348v-136.342c0-17.306-14.329-31.341-32.003-31.341-17.667 0-31.997 14.036-31.997 31.341v136.349c0 17.312 14.329 31.348 31.997 31.348z" />
<glyph unicode="&#xe916;" glyph-name="calendar-time" d="M192 728.033c-28.276 0-51.2-22.453-51.2-50.149v-501.555c0-27.703 22.924-50.156 51.2-50.156h289.915c18.862 0 34.147-14.978 34.147-33.451s-15.292-33.444-34.147-33.444h-289.874c-65.993 0-119.494 52.408-119.494 117.050v501.555c0 64.621 53.48 117.009 119.453 117.009h512.041c65.966 0 119.453-52.388 119.453-117.009v-167.219c0-18.473-15.292-33.451-34.147-33.451s-34.147 14.978-34.147 33.451v167.219c0 27.696-22.924 50.149-51.2 50.149h-512zM746.653 351.877c-75.414 0-136.547-59.884-136.547-133.755 0-73.878 61.14-133.762 136.547-133.762 75.414 0 136.547 59.884 136.547 133.762 0 73.865-61.133 133.755-136.547 133.755zM541.853 218.122c0 110.797 91.696 200.615 204.8 200.615 113.111 0 204.8-89.818 204.8-200.615 0-110.804-91.689-200.622-204.8-200.622-113.104 0-204.8 89.818-204.8 200.622zM277.347 878.499c18.828 0 34.106-14.964 34.106-33.451v-167.171c0.014-0.341 0.020-0.73 0.020-1.133 0-18.473-15.292-33.451-34.147-33.451s-34.147 14.978-34.147 33.451c0 0.403 0.007 0.799 0.020 1.195v-0.061 167.171c0 18.48 15.285 33.451 34.147 33.451zM618.653 878.499c18.91 0 34.147-14.964 34.147-33.451v-167.171c0.014-0.341 0.020-0.73 0.020-1.133 0-18.473-15.292-33.451-34.147-33.451s-34.147 14.978-34.147 33.451c0 0.403 0.007 0.799 0.020 1.195v-0.061 167.171c0 18.48 15.285 33.451 34.106 33.451zM72.547 510.672c0 18.48 15.278 33.451 34.106 33.451h682.694c0.348 0.014 0.751 0.020 1.161 0.020 18.862 0 34.147-14.978 34.147-33.451s-15.292-33.451-34.147-33.451c-0.41 0-0.812 0.007-1.222 0.020h-682.633c-18.828 0.020-34.086 14.964-34.106 33.41zM746.653 314.405c18.903 0 34.147-14.964 34.147-33.444v-48.995l32.693-32.024c6.621-6.060 10.761-14.738 10.772-24.383v-0.002c0-18.473-15.292-33.451-34.147-33.451-0.030 0-0.065 0-0.1 0-9.736 0-18.527 4.044-24.786 10.543l-0.010 0.011-0.020 0.020-42.653 41.786c-6.168 5.999-9.997 14.376-10.001 23.647v62.888c0 18.446 15.278 33.41 34.106 33.41z" />
<glyph unicode="&#xe917;" glyph-name="call" d="M257.143 875.911c-31.867-2.301-59.215-15.469-81.49-30.768-19.671-13.933-36.777-29.481-51.824-46.86l-0.305-0.36-0.355-0.423c-4.643-5.319-9.386-11.185-13.908-17.227l-0.565-0.789-0.628-0.881c-1.789-2.321-3.721-5.065-5.53-7.878l-0.314-0.519c0-0.041 0-0.205-0.089-0.253-20.61-28.378-40.53-84.303-15.783-166.141 24.747-81.961 91.307-190.587 240.722-336.957 149.422-146.412 260.267-211.613 343.982-235.855 83.456-24.153 140.5-4.765 169.513 15.469 3.502 2.028 6.438 3.959 9.264 6.028l-0.259-0.177c7.4 5.295 13.652 10.149 19.718 15.217l-0.522-0.424c18.065 14.921 33.874 31.531 47.531 49.841l0.536 0.751 0.573 0.819c15.613 21.818 29.054 48.606 31.403 79.831 2.348 31.259-8.062 65.871-34.004 96.918v0.089c-55.678 66.205-97.58 98.891-138.752 110.838-41.131 11.953-76.288-2.342-100.482-13.79-24.194-11.496-39.253-19.224-60.327-16.678-21.040 2.594-54.531 17.558-106.837 68.758-52.313 51.241-67.543 84.009-70.192 104.653-2.601 20.61 5.379 35.403 17.067 59.098 11.735 23.702 26.242 58.143 14.036 98.434-12.24 40.332-45.568 81.374-113.152 135.919h-0.082c-31.662 25.409-67.031 35.608-98.946 33.314zM261.839 813.378c16.254 1.174 32.638-2.423 53.63-19.224 63.024-50.859 86.398-85.217 92.501-105.322 6.103-20.145 0.594-31.184-10.322-53.248-10.882-22.071-28.16-53.337-22.917-94.208 5.209-40.837 30.979-84.937 88.405-141.23v-0.089c57.481-56.252 102.489-81.415 144.213-86.514 41.69-5.1 73.605 11.742 96.133 22.446 22.528 10.697 33.874 16.090 54.443 10.11 20.521-5.973 55.549-28.836 107.52-90.61 17.067-20.48 20.733-36.659 19.538-52.538-1.195-15.968-8.786-32.768-20.009-48.442-11.078-14.778-23.366-27.679-37.005-39.008l-0.371-0.299-0.341-0.273c-4.427-3.742-9.374-7.597-14.47-11.258l-0.719-0.491c-3.884-2.758-8.451-5.434-5.502-3.761-1.142-0.651-2.091-1.265-3.006-1.924l0.187 0.128c-14.507-10.158-46.415-26.249-114.599-6.519-68.144 19.729-171.95 78.159-316.846 220.058-144.855 141.981-204.5 243.671-224.638 310.374-20.139 66.751-3.714 98.051 6.656 112.265 0.529 0.711 1.079 1.536 1.588 2.387l0.077 0.139 0.082 0.15c-1.584-2.758 1.024 1.584 3.837 5.434 4.318 5.693 8.276 10.552 12.384 15.276l-0.301-0.353c10.24 11.701 24.439 25.955 40.4 36.946 15.995 10.991 33.15 18.432 49.446 19.64v-0.041z" />
<glyph unicode="&#xe918;" glyph-name="calling" d="M625.632 881.454l-0.751 0.007c-17.674 0-32.003-14.036-32.003-31.341 0-16.207 12.554-29.539 28.652-31.184l0.137-0.014c143.162-15.927 255.686-126.041 271.995-264.841l0.137-1.393c2.287-15.305 15.599-26.924 31.676-26.924 17.674 0 32.003 14.029 32.003 31.341 0 0.901-0.041 1.795-0.116 2.676l0.007-0.116c-20.091 169.233-155.866 302.114-326.929 321.468l-1.727 0.15c-0.91 0.101-1.975 0.162-3.053 0.171h-0.020zM625.168 733.37c-17.654-0.027-31.949-14.056-31.949-31.348 0-15.176 11.011-27.839 25.641-30.727l0.205-0.034c62.853-12.22 111.582-59.938 123.911-120.525l0.164-0.976c2.198-15.401 15.558-27.122 31.71-27.122 17.674 0 31.997 14.036 31.997 31.348 0 2.744-0.355 5.407-1.038 7.946l0.055-0.218c-17.674 86.576-86.153 153.702-173.097 170.837l-1.413 0.239c-1.816 0.369-3.904 0.58-6.041 0.58-0.039 0-0.077 0-0.116 0h-0.028zM248.807 870.668c-31.881-2.253-59.228-15.462-81.497-30.761-19.672-13.934-36.778-29.484-51.824-46.867l-0.305-0.36-0.355-0.416c-4.643-5.319-9.386-11.185-13.908-17.227l-0.565-0.789-0.628-0.881c-1.795-2.328-3.721-5.065-5.53-7.885l-0.314-0.512c0-0.041 0-0.205-0.089-0.253-20.61-28.378-40.53-84.309-15.783-166.093 24.74-82.009 91.3-190.601 240.722-337.005 149.422-146.371 260.267-211.613 343.982-235.855 83.449-24.16 140.5-4.765 169.513 15.462 3.502 2.028 6.438 3.959 9.264 6.035l-0.259-0.184c7.405 5.306 13.657 10.161 19.725 15.23l-0.528-0.429c18.067 14.919 33.876 31.53 47.531 49.841l0.536 0.751 0.573 0.812c15.613 21.818 29.054 48.613 31.403 79.831 2.348 31.266-8.062 65.871-34.004 96.925v0.089c-55.678 66.198-97.58 98.884-138.752 110.838-41.131 11.953-76.288-2.342-100.482-13.79-24.187-11.496-39.294-19.231-60.327-16.678-21.040 2.594-54.531 17.551-106.837 68.751-52.313 51.248-67.543 84.009-70.192 104.66-2.594 20.603 5.379 35.403 17.067 59.098 11.742 23.702 26.242 58.143 14.042 98.427-12.247 40.339-45.568 81.381-113.152 135.919h-0.089c-31.655 25.416-67.031 35.615-98.946 33.314zM253.497 808.143c16.254 1.174 32.638-2.423 53.63-19.224 63.024-50.865 86.405-85.224 92.501-105.329 6.103-20.139 0.601-31.136-10.322-53.248-10.882-22.064-28.16-53.33-22.91-94.208 5.202-40.837 30.973-84.924 88.405-141.189v-0.082c57.467-56.293 102.482-81.456 144.213-86.514 41.684-5.14 73.591 11.701 96.119 22.398 22.535 10.704 33.881 16.138 54.449 10.117 20.521-5.973 55.549-28.836 107.52-90.61 17.067-20.48 20.733-36.618 19.538-52.538-1.195-15.968-8.786-32.768-20.009-48.401-11.075-14.796-23.363-27.71-37.007-39.050l-0.369-0.298-0.341-0.273c-4.427-3.742-9.374-7.597-14.47-11.258l-0.719-0.491c-3.878-2.758-8.445-5.386-5.502-3.761-1.142-0.651-2.091-1.265-3.006-1.924l0.098 0.067 0.096 0.061c-14.513-10.158-46.421-26.249-114.606-6.519-68.137 19.729-171.95 78.159-316.846 220.092-144.848 141.947-204.5 243.589-224.638 310.34s-3.714 98.051 6.656 112.265c0.529 0.711 1.079 1.536 1.588 2.387l0.077 0.139 0.082 0.143c-1.577-2.717 1.024 1.591 3.837 5.434 4.318 5.694 8.276 10.552 12.384 15.277l-0.301-0.354c10.24 11.701 24.439 25.955 40.4 36.946 16.002 10.991 33.15 18.432 49.452 19.647v-0.041z" />
<glyph unicode="&#xe919;" glyph-name="call-missed" d="M946.972 872.449c5.777-5.62 9.362-13.467 9.366-22.152v-0.001c-0.007-8.683-3.591-16.527-9.359-22.139l-0.007-0.007-256-250.778c-5.847-5.919-13.964-9.585-22.936-9.585-0.032 0-0.063 0-0.095 0h0.005c-17.667 0-31.997 14.036-31.997 31.348 0 8.847 3.734 16.828 9.748 22.528l0.007 0.014 256 250.778c5.807 5.666 13.755 9.162 22.519 9.162 0.034 0 0.069 0 0.103 0h-0.005c0.029 0 0.064 0 0.098 0 8.763 0 16.709-3.498 22.518-9.174l-0.006 0.006h0.041zM645.711 872.449c5.807 5.674 13.76 9.175 22.53 9.175 0.028 0 0.056 0 0.084 0h-0.004c8.827 0 16.821-3.509 22.61-9.175l256-250.771c5.315-5.536 8.588-13.069 8.588-21.365 0-0.001 0-0.002 0-0.002v0c0-17.319-14.322-31.348-31.997-31.348-0.030 0-0.066 0-0.101 0-8.386 0-16.025 3.2-21.762 8.446l0.025-0.022 0.020-0.014-256 250.778c-5.771 5.622-9.351 13.469-9.353 22.152v0c0.002 8.683 3.582 16.53 9.346 22.146l0.007 0.006zM149.569 731.847l-0.253-0.287c-0.657-1.127-1.284-2.072-1.958-2.98l0.061 0.085 0.068 0.089c-9.523-13.080-26.46-46.688-6.663-112.224 20.309-67.243 79.278-167.936 224.686-310.374s248.19-200.199 316.839-220.099c66.901-19.354 101.205-2.799 114.558 6.519 0.715 0.514 1.555 1.055 2.422 1.557l0.152 0.081 0.157 0.082c-0.089 0 0 0 0.253 0.164 1.536 1.004 9.687 6.356 20.569 15.421 12.158 10.117 26.365 23.825 37.717 39.629 11.435 15.961 18.773 32.386 19.968 48.394 1.106 15.046-2.901 32.604-19.627 52.579-52.907 62.908-86.228 84.391-107.52 90.576-18.261 5.304-31.662 0.669-54.361-10.076-5.871-2.649-7.441-3.413-9.004-4.192l4.233 1.898c-21.463-10.329-52.060-25.040-91.395-20.193-41.902 5.14-87.47 31.061-144.172 86.562-56.661 55.59-83.156 100.188-88.405 141.271-4.908 38.537 10.11 68.54 20.651 89.525l2.307 4.642c11.005 22.275 15.742 35.362 10.281 53.33-6.315 20.821-28.201 53.501-92.46 105.329-20.439 16.343-38.311 20.268-53.671 19.183-16.343-1.174-33.109-8.363-49.411-19.565-16.166-11.114-30.119-25.074-40.482-36.946-9.052-10.445-14.425-18.302-15.578-19.975h0.041zM250.351 870.865c32.85 2.342 66.69-7.4 98.898-33.273l0.089-0.041c66.43-53.589 101.117-96.297 113.152-135.878 12.882-42.503-2.389-74.943-14.036-98.475l-0.771-1.543c-11.687-23.695-18.773-38.031-16.254-57.549 2.56-20.439 17.067-52.709 70.144-104.701 53.077-51.999 86.016-66.164 106.837-68.717 19.968-2.458 34.557 4.471 58.75 15.974l1.577 0.751c24.023 11.366 57.132 26.33 100.523 13.749 40.407-11.79 84.009-45.807 138.67-110.845l0.082-0.082c26.412-31.56 36.352-64.744 33.969-96.884-2.348-31.177-16.049-58.388-31.45-79.831-28.16-39.369-66.983-66.205-77.312-72.561-30.29-20.815-84.903-39.369-169.001-15.046-83.203 24.119-194.99 90.030-343.941 235.943-148.937 145.865-216.214 255.372-240.797 336.869-24.876 82.384-5.973 135.885 15.312 165.601 6.656 10.322 34.004 48.189 74.028 75.728 21.927 15.087 49.705 28.508 81.49 30.809h0.048z" />
<glyph unicode="&#xe91a;" glyph-name="call-silent" d="M151.158 731.798c-0.205-0.294-0.3-0.41-0.253-0.294-0.601-1.092-1.167-1.993-1.775-2.867l0.068 0.109c-8.663-11.906-22.528-39.492-12.247-90.522 10.581-52.292 46.763-130.369 142.636-240.162 4.773-5.401 7.687-12.542 7.687-20.363 0-0.005 0-0.010 0-0.015v0.001c0-17.312-14.336-31.348-32.003-31.348-0.033 0-0.072 0-0.111 0-9.615 0-18.247 4.214-24.148 10.895l-0.030 0.035-0.034 0.041c-99.758 114.272-143.278 201.96-156.713 268.745-13.571 67.379 3.714 112.142 22.098 138.056 6.656 10.404 34.133 48.401 74.199 75.94 21.927 15.087 49.664 28.508 81.449 30.809 32.809 2.342 66.601-7.4 98.775-33.191l0.082-0.082c52.995-42.796 85.333-78.37 102.489-110.551 18.173-34.099 18.603-63.44 10.793-89.941-4.114-13.054-8.834-24.207-14.457-34.807l0.537 1.111 0.567 1.181-2.99-5.98c-3.502-7.148-6.485-13.203-9.127-19.64-5.939-14.63-8.492-28.126-3.12-46.019 0.819-2.642 1.297-5.673 1.297-8.82 0-17.319-14.336-31.355-32.017-31.355-14.473 0-26.692 9.4-30.652 22.316l-0.068 0.218c-10.493 35.11-4.396 63.406 5.12 86.815 3.543 8.861 7.851 17.51 11.523 24.829l2.348 4.806c3.413 6.362 6.656 13.899 9.25 21.722l0.307 1.051c3.413 11.667 4.178 24.33-6.062 43.554-11.264 21.149-35.922 50.326-86.439 91.116-20.316 16.302-38.147 20.227-53.46 19.142-16.343-1.167-33.068-8.356-49.37-19.558-16.166-11.121-30.16-25.081-40.53-36.994-9.093-10.445-14.466-18.302-15.572-19.975h-0.048zM465.915 430.496c5.849 5.923 13.969 9.592 22.946 9.592 0.033 0 0.066 0 0.099 0h-0.005c8.615 0 16.439-3.345 22.193-8.765l-0.014 0.007c50.476-47.65 81.626-59.515 101.253-61.146 18.685-1.584 32.556 5.018 55.255 15.756l4.56 2.137c24.323 11.448 57.173 25.491 100.222 12.411 39.984-12.124 83.115-46.060 137.093-110.257l0.082-0.048c26.453-31.594 36.434-64.778 34.051-96.959-2.307-31.184-16.049-58.388-31.491-79.831-28.078-39.124-66.772-65.83-77.524-72.431-29.867-20.733-83.715-38.953-166.277-15.715-81.831 23.108-191.693 86.808-337.749 228.079-5.87 5.638-9.518 13.551-9.523 22.315v0.001c0 17.319 14.336 31.355 32.010 31.355 8.765 0 16.712-3.447 22.487-9.039 142.418-137.837 243.2-193.516 310.484-212.446 65.666-18.514 99.198-2.178 112.046 6.977 0.963 0.696 2.062 1.393 3.209 2.014l0.157 0.075c1.584 1.051 9.728 6.315 20.569 15.346 12.199 10.11 26.453 23.736 37.799 39.581 11.476 15.879 18.773 32.263 19.968 48.271 1.113 15.005-2.901 32.556-19.709 52.661-52.183 61.986-85.333 83.715-106.667 90.201-18.261 5.557-31.621 1.249-53.466-9.032l-5.973-2.881c-20.603-9.953-50.005-24.119-87.081-21.026-41.131 3.468-85.504 26.918-140.158 78.493-6.030 5.657-9.788 13.673-9.796 22.567v0.002c0 8.445 3.413 16.111 8.95 21.743l-0.007-0.007zM945.27 872.441c5.772-5.622 9.353-13.469 9.353-22.153s-3.581-16.531-9.346-22.146l-0.007-0.007-789.327-773.216c-5.71-5.216-13.343-8.411-21.722-8.411-0.034 0-0.068 0-0.101 0h0.005c-17.674 0-32.003 14.036-32.003 31.348 0 8.267 3.27 15.783 8.608 21.388l-0.014-0.020 789.327 773.216c5.805 5.674 13.756 9.175 22.524 9.175 0.030 0 0.060 0 0.090 0h-0.005c8.827 0 16.828-3.509 22.617-9.175h-0.007z" />
<glyph unicode="&#xe91b;" glyph-name="camera" d="M345.828 411.343c-0.026 1.054-0.041 2.296-0.041 3.541 0 0.051 0 0.102 0 0.153v-0.008c0 89.935 74.424 162.836 166.229 162.836s166.229-72.909 166.229-162.836c0-1.297-0.014-2.594-0.048-3.878l0.007 0.191c-2.109-88.337-75.708-159.15-166.188-159.15s-164.079 70.82-166.182 158.959v0.191zM512.017 511.443c-0.881 0.027-1.911 0.041-2.956 0.041-56.457 0-102.229-44.838-102.229-100.147 0-55.296 45.773-100.134 102.229-100.134 1.044 0 2.075 0.014 3.106 0.041h-0.15c55.173 1.611 99.28 45.807 99.28 100.099s-44.1 98.488-99.123 100.099h-0.157zM589.54 834.733c22.323-2.089 45.056-5.557 60.464-11.913 31.403-12.957 49.493-39.793 60.716-59.767 3.966-7.1 7.81-14.711 11.005-21.026l3.584-6.977c4.396-8.527 6.745-11.947 7.769-13.039v-0.041c6.185-6.642 14.077-10.991 21.456-13.38 71.257-19.388 117.589-53.412 143.872-107.411 24.876-50.995 29.744-116.279 29.744-192.676 0-108.25-9.216-200.834-72.622-263.482-63.106-62.28-171.39-86.938-343.552-86.938-172.114 0-280.405 24.658-343.463 86.938-63.447 62.648-72.663 155.273-72.663 263.482 0 76.404 4.861 141.687 29.737 192.676 26.283 53.999 72.622 88.023 143.92 107.418 8.43 2.713 15.61 7.313 21.32 13.324l0.021 0.022 0.034 0.027h0.041c2.874 3.837 5.509 8.185 7.694 12.78l0.205 0.478 3.666 7.1c3.243 6.349 7.086 14.001 11.093 21.026 11.216 19.893 29.355 47.015 60.716 59.597h0.041c15.060 6.021 37.458 9.448 59.733 11.537 22.992 2.185 49.698 3.427 76.711 3.427h0.942c26.924 0.041 54.231-0.956 77.783-3.174h0.034zM398.523 764.937c-9.769-3.932-18.855-14.042-28.972-31.894-2.039-3.401-4.652-8.212-7.125-13.106l-0.726-1.585-1.106-2.444-4.779-9.196c-4.185-8.021-9.987-18.767-17.579-26.959-13.415-14.258-30.365-25.042-49.454-30.961l-0.81-0.216-0.812-0.212c-58.45-15.838-87.334-40.291-103.806-74.144-18.009-36.953-23.47-89.108-23.47-165.724 0-110.128 11.223-177.043 54.019-219.341 43.179-42.633 126.976-68.383 298.114-68.383 171.090 0 254.887 25.75 298.066 68.383 42.796 42.298 54.060 109.213 54.060 219.341 0 76.616-5.502 128.778-23.47 165.724-16.507 33.853-45.35 58.3-103.847 74.138-20.282 6.137-37.526 17.019-51.002 31.355l-0.068 0.082c-7.598 8.192-13.401 18.889-17.497 26.829-1.707 3.222-3.202 6.274-4.69 9.202-2.901 5.68-5.632 11.114-8.916 16.93-9.817 17.545-19.074 28.003-29.491 32.304-5.543 2.253-19.538 5.188-41.766 7.27-20.221 1.871-43.732 2.935-67.488 2.935l-4.11-0.007c-25.429-0.082-50.558-1.167-71.543-3.174-22.187-2.089-36.181-4.977-41.731-7.195v0.048zM689.558 557.543c0 17.312 14.322 31.348 31.997 31.348h0.43c17.667 0 31.997-14.036 31.997-31.348s-14.329-31.348-31.997-31.348h-0.43c-17.674 0-31.997 14.036-31.997 31.348z" />
<glyph unicode="&#xe91c;" glyph-name="caret-down" d="M784.21 602.010c10.090-5.407 16.821-15.735 16.821-27.6 0-5.427-1.413-10.54-3.891-14.991l0.082 0.164-0.082-0.082-0.089-0.205-0.335-0.635-1.283-2.253-4.82-8.363c-26.788-45.759-53.391-84.664-82.391-121.672l1.918 2.553c-25.511-32.563-55.637-66.246-87.975-92.119-31.573-25.245-69.55-46.599-110.080-46.599-40.619 0-78.636 21.313-110.21 46.599-32.297 25.873-62.464 59.563-87.982 92.119-29.047 36.946-57.276 78.602-82.493 122.15l-2.84 5.325-1.277 2.26-0.341 0.628-0.13 0.164v0.089c-2.418 4.269-3.844 9.375-3.844 14.815 0 0.028 0 0.057 0 0.085v-0.004c0 17.319 14.329 31.355 32.003 31.355 12.104 0 22.637-6.581 28.078-16.288l0.082-0.164 0.041-0.13 0.259-0.457 1.113-1.966 4.39-7.646c25.218-43.028 50.251-79.613 77.537-114.415l-1.802 2.403c24.016-30.72 50.77-60.191 77.694-81.756 27.73-22.153 51.33-32.474 69.673-32.474 18.35 0 41.943 10.281 69.632 32.474 26.931 21.531 53.637 51.036 77.66 81.715 27.259 34.679 53.767 73.796 77.449 114.688l2.676 5.018 1.113 1.966 0.253 0.41 0.041 0.13 43.349 12.704zM784.21 602.044c-4.362 2.361-9.549 3.748-15.061 3.748-0.038 0-0.076 0-0.114 0h0.006c-12.124 0-22.665-6.601-28.099-16.329l-0.082-0.164 43.349 12.745z" />
<glyph unicode="&#xe91d;" glyph-name="caret-down-square" d="M842.924 772.208c-71.086 69.687-181.166 93.751-330.923 93.751-149.763 0-259.843-24.078-330.964-93.751-71.168-69.714-95.703-177.507-95.703-324.205 0-146.705 24.535-254.539 95.703-324.212 71.168-69.714 181.2-93.751 330.957-93.751 149.763 0 259.802 24.037 330.929 93.751 71.168 69.714 95.744 177.507 95.744 324.212s-24.576 254.498-95.744 324.205zM797.697 727.862c52.176-51.111 76.971-136.67 76.971-279.859 0-143.237-24.788-228.755-76.971-279.866-52.183-51.159-139.523-75.401-285.696-75.401-146.227 0-233.513 24.241-285.696 75.401-52.224 51.111-76.971 136.629-76.971 279.866 0 143.23 24.747 228.748 76.971 279.859 52.176 51.118 139.469 75.407 285.696 75.407s233.513-24.282 285.696-75.401zM345.813 534.101c-8.431-5.734-13.879-15.155-13.879-25.839 0-6.622 2.096-12.759 5.666-17.818l-0.068 0.102 0.089-0.164 0.253-0.341 0.942-1.331 3.454-4.806c19.349-26.74 37.484-49.655 56.5-71.791l-1.204 1.435-1.406 1.686c16.084-18.685 34.393-38.332 52.224-53.542 8.963-7.612 18.521-14.752 28.249-20.145 9.257-5.14 21.586-10.329 35.321-10.329 13.742 0 26.078 5.188 35.376 10.329 9.728 5.393 19.285 12.541 28.201 20.105 17.92 15.251 36.222 34.857 52.265 53.583 16.615 19.257 33.568 40.572 49.676 62.546l2.029 2.902 2.225 3.222 3.502 4.806 1.154 1.673 0.123 0.123c3.529 4.97 5.632 11.127 5.632 17.763 0 17.326-14.336 31.369-32.017 31.369-0.036 0-0.079 0-0.122 0-10.764 0-20.294-5.285-26.136-13.401l-0.065-0.096-0.068-0.109-0.041-0.082-0.212-0.294-0.771-1.126c-6.739-9.583-12.164-16.904-17.728-24.115l1.207 1.628 1.502 2.048c-14.091-18.698-26.81-34.482-39.981-49.868l1.158 1.385c-15.237-17.722-31.061-34.522-45.274-46.599-5.095-4.524-10.734-8.683-16.731-12.307l-0.513-0.288-0.505-0.28c-1.058-0.621-2.321-1.249-3.618-1.802l-0.218-0.082c-1.574 0.649-2.887 1.308-4.146 2.049l0.303-0.165c-6.746 3.991-12.585 8.259-17.975 13.023l0.226-0.196c-16.015 14.279-30.605 29.261-44.087 45.208l-0.539 0.654-0.608 0.751c-16.738 19.409-33.697 40.85-49.75 62.99l-1.956 2.832-2.144 3.14-0.806 1.126-0.177 0.253v0.082l-44.537 8.11zM345.772 534.101c5.049 3.446 11.285 5.502 18.001 5.502 0.039 0 0.078 0 0.117 0h-0.006c0.036 0 0.078 0 0.12 0 10.766 0 20.295-5.291 26.131-13.414l0.066-0.096 0.068-0.102-44.496 8.11z" />
<glyph unicode="&#xe91e;" glyph-name="caret-left" d="M669.228 714.681c-5.609 9.897-16.071 16.466-28.067 16.466-0.033 0-0.065 0-0.098 0h0.005c-5.564 0-10.8-1.393-15.36-3.837l0.171 0.082-0.253-0.13-0.642-0.335-2.348-1.249-8.533-4.765c-46.708-26.242-86.426-52.299-124.204-80.712l2.608 1.884c-33.198-24.951-67.632-54.504-94.003-86.146-25.798-30.925-47.568-68.13-47.568-107.875s21.763-76.984 47.527-107.916c26.453-31.676 60.846-61.235 94.037-86.221 37.717-28.467 80.241-56.122 124.703-80.814l5.434-2.778 2.348-1.256 0.642-0.335 0.171-0.082h0.041s0.041-0.041 15.23 27.546l-15.23-27.587c4.375-2.373 9.578-3.768 15.108-3.768 0.036 0 0.072 0 0.108 0h-0.006c17.681 0 32.003 14.036 32.003 31.355 0 11.851-6.717 22.173-16.63 27.498l-0.164 0.089-0.13 0.041-0.423 0.253-2.007 1.085c-18.077 9.709-31.334 17.44-44.366 25.499l3.808-2.193 4.376-2.492c-23.593 14.206-54.914 34.27-86.016 57.679-31.314 23.572-61.44 49.732-83.456 76.151-22.61 27.122-33.109 50.237-33.109 68.253 0 17.968 10.499 41.083 33.109 68.212 22.016 26.33 52.142 52.538 83.456 76.070 35.41 26.706 75.339 52.668 117.077 75.872l5.12 2.615 2.437 1.297 0.123 0.089 12.971 42.462zM669.228 714.681c2.414-4.263 3.837-9.363 3.837-14.796 0-0.028 0-0.056 0-0.084v0.004c0-11.858-6.724-22.18-16.643-27.511l-0.164-0.075 12.971 42.462z" />
<glyph unicode="&#xe91f;" glyph-name="caret-left-square" d="M842.964 772.171c71.127-69.632 95.703-177.473 95.703-324.178s-24.576-254.539-95.703-324.212c-71.168-69.707-181.207-93.737-330.964-93.737-149.763 0-259.796 24.030-330.964 93.744s-95.703 177.507-95.703 324.212 24.535 254.498 95.703 324.171c71.168 69.714 181.2 93.785 330.957 93.785 149.763 0 259.802-24.071 330.97-93.785zM797.696 727.866c-52.183 51.111-139.523 75.401-285.696 75.401-146.227 0-233.513-24.282-285.696-75.401-52.224-51.118-76.971-136.67-76.971-279.866 0-143.237 24.747-228.748 76.971-279.866 52.176-51.159 139.469-75.401 285.696-75.401s233.513 24.241 285.696 75.401c52.176 51.111 76.971 136.629 76.971 279.866 0 143.23-24.794 228.748-76.971 279.866zM599.893 285.204c-5.906-8.271-15.473-13.599-26.285-13.599-0.033 0-0.066 0-0.099 0h0.005c-0.022 0-0.049 0-0.076 0-6.76 0-13.035 2.077-18.221 5.628l0.11-0.071 0.102-0.068-0.171 0.082-0.341 0.253-1.365 0.922c-11.333 7.645-19.515 13.454-27.594 19.396l2.472-1.735 2.854-1.987c-20.663 14.919-37.834 28.217-54.581 42.012l1.845-1.475c-19.074 15.715-39.13 33.649-54.702 51.159-7.258 7.94-13.882 16.714-19.64 26.077l-0.43 0.752-0.451 0.799c-5.25 9.073-10.54 21.149-10.54 34.611 0 13.449 5.291 25.532 10.54 34.645 5.502 9.53 12.8 18.889 20.521 27.668 15.572 17.51 35.581 35.444 54.702 51.159 20.782 17.252 44.111 34.997 68.173 51.764l3.439 2.269 3.393 2.225 1.324 0.922 0.382 0.205 0.13 0.123c5.054 3.454 11.299 5.516 18.025 5.516 0.037 0 0.075 0 0.112 0h-0.006c17.681 0 32.017-14.042 32.017-31.362-0.025-10.697-5.438-20.124-13.667-25.715l-0.109-0.070-0.109-0.068-0.082-0.041-0.3-0.164-1.154-0.84c-10.013-6.705-17.487-11.999-24.85-17.433l1.906 1.343 2.082 1.461c-19.885-14.364-36.501-27.272-52.685-40.682l1.656 1.333 1.536 1.229c-18.091-14.882-35.239-30.379-47.575-44.305-4.633-5.012-8.872-10.533-12.58-16.423l-0.274-0.467-0.287-0.492c-0.607-0.984-1.221-2.149-1.759-3.355l-0.077-0.194-0.082-0.212c0.341-0.84 0.894-2.089 1.918-3.768 2.608-4.594 6.915-10.445 13.107-17.381 12.37-13.926 29.519-29.423 47.568-44.305 18.143-15.051 38.594-30.679 59.649-45.508l3.136-2.094 3.092-2.048 5.673-3.891 0.259-0.171h0.082l8.281-43.629zM599.893 285.204c3.514 4.92 5.618 11.056 5.618 17.684 0 0.023 0 0.046 0 0.069v-0.004c0 10.677-5.461 20.118-13.79 25.777l-0.109 0.068 8.281-43.595z" />
<glyph unicode="&#xe920;" glyph-name="caret-right" d="M354.768 714.702c5.608 9.897 16.068 16.466 28.063 16.466 0.036 0 0.073 0 0.109 0h-0.006c5.564 0 10.793-1.393 15.353-3.837l-0.171 0.082 0.259-0.13 0.635-0.335 2.348-1.249 8.533-4.765c46.708-26.242 86.426-52.299 124.204-80.712l-2.601 1.884c33.191-24.951 67.625-54.504 94.037-86.146 25.771-30.925 47.527-68.13 47.527-107.875s-21.757-76.984-47.527-107.916c-26.453-31.676-60.846-61.235-94.037-86.221-37.717-28.467-80.241-56.122-124.703-80.814l-5.434-2.778-2.348-1.256-0.635-0.335-0.171-0.082h-0.048l-15.23 27.505 15.23-27.587c-4.375-2.373-9.578-3.768-15.108-3.768-0.036 0-0.072 0-0.108 0h0.006c-17.681 0-32.003 14.036-32.003 31.355 0 11.858 6.717 22.173 16.63 27.505l0.164 0.082 0.13 0.041 0.43 0.246 2 1.092 7.851 4.342c43.923 24.706 81.271 49.22 116.797 75.96l-2.451-1.775c31.362 23.532 61.44 49.739 83.456 76.076 22.617 27.163 33.109 50.278 33.109 68.294 0 17.968-10.493 41.083-33.109 68.205-21.968 26.337-52.094 52.538-83.408 76.070-35.41 26.706-75.339 52.668-117.077 75.872l-5.12 2.621-2.007 1.044-0.471 0.253-0.082 0.082-13.018 42.503zM354.768 714.702c-2.406-4.257-3.823-9.349-3.823-14.771 0-0.029 0-0.059 0-0.088v0.005c0-11.878 6.738-22.207 16.671-27.525l0.164-0.082-13.012 42.462z" />
<glyph unicode="&#xe921;" glyph-name="caret-right-square" d="M181.037 772.175c-71.134-69.632-95.703-177.473-95.703-324.178s24.576-254.539 95.703-324.212c71.168-69.714 181.2-93.744 330.957-93.744 149.763 0 259.802 24.030 330.97 93.744s95.703 177.507 95.703 324.212-24.535 254.498-95.703 324.171c-71.168 69.721-181.207 93.792-330.964 93.792-149.763 0-259.796-24.071-330.964-93.785zM226.298 727.87c52.197 51.111 139.53 75.401 285.703 75.401 146.227 0 233.52-24.282 285.703-75.401 52.224-51.118 76.971-136.67 76.971-279.866 0-143.237-24.747-228.748-76.971-279.866-52.183-51.159-139.476-75.401-285.696-75.401s-233.513 24.241-285.696 75.401c-52.183 51.111-76.971 136.629-76.971 279.866 0 143.23 24.781 228.748 76.971 279.866zM424.108 285.208c5.906-8.271 15.473-13.599 26.284-13.599 0.031 0 0.061 0 0.092 0h-0.005c6.758 0 13.025 2.055 18.193 5.557l-0.109-0.068 0.171 0.082 0.341 0.253 1.365 0.922 4.915 3.386c27.567 19.083 50.936 36.848 73.52 55.529l-1.785-1.434-1.638-1.311c19.074 15.749 39.124 33.683 54.654 51.2 7.769 8.731 15.060 18.091 20.569 27.621 5.243 9.073 10.54 21.149 10.54 34.611 0 13.455-5.297 25.532-10.54 34.645-6.338 10.506-13.167 19.614-20.8 27.975l0.122-0.136 0.15-0.171c-16.646 18.026-34.225 34.543-52.91 49.754l-0.925 0.73-0.86 0.676c-20.783 17.253-44.112 34.998-68.174 51.765l-3.438 2.268-3.4 2.225-1.318 0.922-0.389 0.205-0.123 0.123c-5.054 3.454-11.299 5.516-18.025 5.516-0.040 0-0.080 0-0.12 0h0.006c-17.681 0-32.017-14.042-32.017-31.362 0-10.684 5.455-20.118 13.783-25.784l0.102-0.068 0.089-0.041 0.3-0.164 1.147-0.84c9.441-6.369 16.241-11.175 22.951-16.090l-2.089 1.461c19.436-14.084 35.551-26.585 51.278-39.54l-1.785 1.427c18.091-14.882 35.246-30.392 47.582-44.305 6.185-6.984 10.534-12.834 13.135-17.388 0.635-1.038 1.277-2.273 1.843-3.55l0.075-0.212c-0.657-1.535-1.327-2.82-2.078-4.049l0.078 0.137 0.082 0.15c-4.066-6.59-8.418-12.31-13.261-17.569l0.072 0.080 0.089 0.102c-14.472-15.586-29.756-29.887-45.989-43.065l-0.822-0.646-0.765-0.594c-18.142-15.051-38.59-30.679-59.642-45.508l-3.136-2.095-3.092-2.048-5.932-4.062h-0.089l-8.274-43.629zM424.108 285.208c-3.514 4.92-5.618 11.057-5.618 17.686 0 0.022 0 0.045 0 0.067v-0.003c0 10.677 5.461 20.118 13.79 25.777l0.102 0.068-8.274-43.595z" />
<glyph unicode="&#xe922;" glyph-name="caret-up" d="M239.79 293.957c-10.090 5.4-16.821 15.729-16.821 27.593 0 5.461 1.427 10.602 3.932 15.073l-0.082-0.164v-0.041 0.13l0.13 0.164 0.341 0.628 1.277 2.253 4.82 8.363c26.795 45.759 53.391 84.664 82.398 121.672l-1.925-2.553c25.511 32.563 55.678 66.246 87.975 92.119 31.573 25.245 69.55 46.599 110.080 46.599 40.619 0 78.643-21.313 110.21-46.599 32.338-25.873 62.505-59.563 87.982-92.119 29.054-36.946 57.276-78.602 82.493-122.15l2.84-5.325 1.277-2.26 0.341-0.628 0.13-0.164v-0.089c2.418-4.272 3.843-9.382 3.843-14.826 0-0.025 0-0.049 0-0.074v0.004c0-17.319-14.329-31.355-32.003-31.355-0.041 0-0.090 0-0.139 0-11.917 0-22.317 6.492-27.857 16.133l-0.083 0.156-0.082 0.164v0.123l-0.3 0.464-1.106 1.966c-9.742 17.383-17.613 30.346-25.812 43.076l2.042-3.386 2.519-4.253c-14.507 23.115-34.987 53.753-58.88 84.262-24.023 30.679-50.77 60.191-77.694 81.715-27.737 22.153-51.33 32.474-69.673 32.474-18.35 0-41.943-10.281-69.632-32.433-26.883-21.572-53.637-51.077-77.653-81.756-27.259-34.679-53.767-73.796-77.455-114.681l-2.676-5.018-1.106-1.966-0.259-0.416v-0.13l-43.39-12.745zM239.79 293.957c4.361-2.361 9.547-3.748 15.057-3.748 0.039 0 0.078 0 0.118 0h-0.006c12.124 0 22.665 6.601 28.099 16.329l0.082 0.164-43.349-12.745z" />
<glyph unicode="&#xe923;" glyph-name="caret-up-square" d="M842.923 123.792c-71.086-69.673-181.166-93.751-330.923-93.751-149.763 0-259.843 24.078-330.964 93.751-71.168 69.714-95.703 177.507-95.703 324.212s24.535 254.532 95.703 324.205c71.168 69.721 181.2 93.751 330.957 93.751 149.763 0 259.802-24.030 330.929-93.751 71.168-69.714 95.744-177.507 95.744-324.205 0-146.705-24.576-254.498-95.744-324.212zM797.696 168.138c52.176 51.111 76.971 136.67 76.971 279.866 0 143.23-24.788 228.748-76.971 279.859-52.183 51.159-139.523 75.407-285.696 75.407-146.227 0-233.513-24.235-285.696-75.401-52.224-51.111-76.971-136.629-76.971-279.859 0-143.237 24.747-228.755 76.971-279.866 52.176-51.125 139.469-75.407 285.696-75.407s233.513 24.282 285.696 75.401zM345.812 361.899c-8.431 5.734-13.879 15.155-13.879 25.839 0 6.622 2.096 12.766 5.666 17.818l-0.068-0.102 0.089 0.164 0.253 0.341 0.942 1.331 3.454 4.813c19.349 26.737 37.484 49.65 56.5 71.784l-1.204-1.435-1.406-1.679c16.084 18.678 34.393 38.325 52.224 53.583 8.963 7.564 18.521 14.711 28.249 20.105 9.257 5.14 21.586 10.322 35.321 10.322 13.742 0 26.078-5.188 35.376-10.322 9.728-5.393 19.285-12.541 28.201-20.105 17.92-15.258 36.222-34.857 52.265-53.589 16.616-19.257 33.569-40.569 49.678-62.541l2.028-2.899 2.225-3.229 3.502-4.806 1.154-1.673 0.123-0.123c3.529-4.97 5.632-11.127 5.632-17.763 0-17.326-14.336-31.369-32.017-31.369-0.036 0-0.079 0-0.122 0-10.764 0-20.294 5.285-26.136 13.401l-0.065 0.096-0.068 0.109-0.041 0.082-0.212 0.294-0.771 1.126c-6.744 9.59-12.17 16.911-17.733 24.122l1.212-1.635 1.502-2.048c-14.402 19.169-27.538 35.449-41.172 51.289l1.079-1.283 1.263-1.522c-14.107 16.769-28.789 31.888-44.476 45.907l-0.43 0.377-0.362 0.321c-5.095 4.523-10.734 8.682-16.731 12.307l-0.513 0.288-0.505 0.273c-0.996 0.592-2.187 1.195-3.418 1.723l-0.207 0.079-0.218 0.082c-1.576-0.648-2.889-1.305-4.148-2.043l0.154 0.084 0.157 0.082c-6.746-3.994-12.585-8.263-17.975-13.029l0.225 0.195c-14.213-12.117-30.037-28.925-45.233-46.599-16.738-19.411-33.697-40.853-49.749-62.996l-1.956-2.833-2.137-3.14-0.812-1.126-0.171-0.253v-0.082l-44.537-8.11zM345.812 361.899c5.048-3.446 11.283-5.502 17.999-5.502 0.040 0 0.079 0 0.119 0h-0.006c0.038 0 0.082 0 0.127 0 10.766 0 20.296 5.291 26.131 13.414l0.066 0.096 0.068 0.102-44.503-8.11z" />
<glyph unicode="&#xe924;" glyph-name="category" d="M739.256 791.47c-68.895 0-124.737-54.702-124.737-122.184s55.842-122.191 124.737-122.191c68.888 0 124.73 54.709 124.73 122.191s-55.842 122.191-124.73 122.191zM550.54 669.272c0 102.106 84.5 184.887 188.737 184.887s188.737-82.78 188.737-184.887c0-102.113-84.5-184.887-188.737-184.887s-188.737 82.78-188.737 184.887zM284.682 791.47c-68.881-0.020-124.716-54.729-124.716-122.211 0-67.495 55.856-122.211 124.757-122.211h0.048c68.881 0.020 124.716 54.729 124.716 122.211 0 67.495-55.856 122.211-124.757 122.211h-0.048zM95.966 669.266c0 102.12 84.514 184.907 188.757 184.907 104.25 0 188.757-82.787 188.757-184.907 0-102.127-84.507-184.907-188.757-184.907-104.243 0-188.757 82.787-188.757 184.907zM739.256 348.938c-0.661 0.013-1.441 0.021-2.223 0.021-0.030 0-0.059 0-0.089 0h0.005c-68.902 0-124.757-54.716-124.757-122.211s55.856-122.211 124.757-122.211c0.812 0 1.618 0.007 2.43 0.020h-0.123c67.898 1.27 122.45 55.494 122.45 122.191s-54.552 120.921-122.327 122.191h-0.123zM550.54 226.727c-0.013 0.815-0.020 1.777-0.020 2.74 0 0.016 0 0.032 0 0.048v-0.002c0 102.12 84.514 184.9 188.757 184.9s188.757-82.787 188.757-184.9c0-0.983-0.007-1.959-0.020-2.929v0.143c-1.597-100.912-85.484-182.122-188.737-182.122-103.247 0-187.139 81.21-188.737 181.978v0.143zM284.682 348.938c-68.881-0.020-124.716-54.729-124.716-122.211 0-67.495 55.856-122.211 124.757-122.211h0.048c68.881 0.027 124.716 54.736 124.716 122.218 0 67.495-55.856 122.204-124.757 122.204h-0.048zM95.966 226.727c0 102.127 84.514 184.907 188.757 184.907 104.25 0 188.757-82.787 188.757-184.907s-84.507-184.9-188.757-184.9c-104.243 0-188.757 82.78-188.757 184.907v-0.007z" />
<glyph unicode="&#xe925;" glyph-name="chart" d="M317.699 553.581c17.674 0 31.997-14.036 31.997-31.355v-279.777c0-17.312-14.322-31.348-31.997-31.348s-32.003 14.036-32.003 31.348v279.825c0 17.306 14.329 31.341 32.003 31.341v-0.041zM511.993 687.479c17.681 0 32.003-14.029 32.003-31.341v-413.696c0-17.312-14.329-31.348-32.003-31.348-17.667 0-31.997 14.036-31.997 31.348v413.696c0 17.312 14.329 31.348 32.003 31.348zM703.099 405.743c17.674 0 32.003-14.042 32.003-31.355v-131.946c0-17.312-14.329-31.348-32.003-31.348s-31.997 14.036-31.997 31.348v131.953c0 17.312 14.322 31.348 31.997 31.348zM210.050 743.786c-55.426-54.34-81.49-144.91-81.49-295.793s26.071-241.446 81.49-295.738c55.467-54.333 147.927-79.831 301.95-79.831 154.030 0 246.484 25.498 301.909 79.831 55.467 54.292 81.497 144.903 81.497 295.745 0 150.883-26.030 241.459-81.497 295.745-55.419 54.34-147.92 79.872-301.909 79.872-154.023 0-246.484-25.532-301.943-79.824zM164.823 788.091c74.411 72.895 189.611 98.222 347.177 98.222 157.525 0 272.773-25.327 347.184-98.222 74.411-72.888 100.263-185.74 100.263-340.091 0-154.31-25.853-267.203-100.263-340.091-74.411-72.895-189.611-98.222-347.184-98.222-157.559 0-272.766 25.327-347.177 98.222-74.411 72.888-100.27 185.74-100.27 340.091s25.859 267.196 100.27 340.091z" />
<glyph unicode="&#xe926;" glyph-name="chat" d="M637.439 430.721c0 23.081 19.101 41.8 42.667 41.8h0.341c23.566 0 42.667-18.719 42.667-41.8s-19.101-41.8-42.667-41.8h-0.382c-23.566 0-42.667 18.719-42.667 41.8h0.041zM466.342 430.721c0 23.081 19.108 41.8 42.667 41.8h0.43c23.566 0 42.667-18.719 42.667-41.8s-19.101-41.8-42.667-41.8h-0.423c-23.566 0-42.667 18.719-42.667 41.8zM295.293 430.721c0 23.081 19.101 41.8 42.667 41.8h0.43c23.559 0 42.667-18.719 42.667-41.8s-19.108-41.8-42.667-41.8h-0.43c-23.566 0-42.667 18.719-42.667 41.8zM791.080 721.455c154.283-151.142 153.941-395.933 0-546.816-120.532-118.115-299.179-143.735-445.44-77.449l-1.495 0.628c-9.762 3.843-20.821 3.761-27.088 3.55l-0.614-0.020c-9.464-0.361-18.275-1.102-26.967-2.223l1.469 0.155c-8.752-1.004-18.35-2.26-28.078-3.55l-2.048-0.253c-10.54-1.386-21.422-2.806-32.297-4.055-22.016-2.512-42.626-4.055-59.092-3.345-8.24 0.335-14.295 1.208-18.48 2.342l-0.171 0.034c-1.114 0.287-2.051 0.605-2.957 0.982l0.144-0.053 0.055-0.164c-0.362 0.838-0.717 1.864-1 2.921l-0.038 0.165c-1.154 4.096-2.048 10.076-2.389 18.097-0.724 16.131 0.853 36.318 3.413 57.89 1.277 10.656 2.731 21.313 4.137 31.642l0.3 2c1.283 9.53 2.56 18.978 3.625 27.505l-0.157-1.516c1.14 8.724 1.905 17.558 2.294 27.095 0.171 6.144 0.253 16.971-3.673 26.583l-0.068 0.205c-0.227 0.556-0.418 0.97-0.621 1.375l0.054-0.119 1.017-2.355c-23.767 48.136-37.67 104.798-37.67 164.706 0 0.147 0 0.293 0 0.44v-0.023c0 106.858 44.223 203.599 115.712 273.626 153.982 150.883 404.139 150.883 558.080 0h0.041zM836.307 765.76c-178.947 175.418-469.634 175.418-648.574 0-139.264-136.383-170.073-338.057-93.484-503.644v-3.345c-0.379-7.996-1.070-15.347-2.078-22.596l0.146 1.283 0.137 1.256c-0.935-7.987-2.13-16.889-3.495-26.631l-0.259-1.795c-0.221 0.555-1.725-10.653-3.145-21.887l-1.122-10.881c-2.601-22.234-4.731-46.517-3.796-67.837 0.471-10.697 1.748-21.729 4.608-31.976 2.813-10.028 7.81-21.565 17.278-30.843 9.516-9.318 21.333-14.165 31.491-16.923 10.445-2.806 21.757-4.055 32.638-4.519 21.763-0.915 46.51 1.174 69.25 3.761 11.517 1.256 22.869 2.765 33.451 4.185l1.836 0.205c9.94 1.297 18.978 2.512 27.129 3.434 8.752 0.997 15.531 1.584 20.528 1.707h3.366c169.097-74.936 374.873-44.844 514.137 91.621 178.9 175.288 179.282 459.796 0 635.426h-0.041z" />
<glyph unicode="&#xe927;" glyph-name="clear-formatting" d="M153.592 122.456c0 25.683 20.82 46.503 46.503 46.503 0.002 0 0.005 0 0.007 0h331.12c25.443-0.318 45.947-21.018 45.947-46.507s-20.503-46.189-45.917-46.506h-331.157c-25.684 0.004-46.503 20.826-46.503 46.51v0zM813.355 773.542c0-25.683-20.82-46.503-46.503-46.503v0h-160.515c-9.448-0.001-17.402-6.4-19.764-15.1l-0.033-0.143-122.013-461.285c-5.509-20.334-23.796-35.046-45.52-35.048v0c-30.897 0-53.425 29.259-45.52 59.133l112.872 426.728c0.432 1.571 0.681 3.374 0.681 5.236 0 11.31-9.168 20.479-20.478 20.48h-125.092c-25.685 0-46.507 20.822-46.507 46.507s20.822 46.507 46.507 46.507v0h425.376c25.683 0 46.503-20.82 46.503-46.503 0-0.002 0-0.005 0-0.007v0zM860.834 98.255c-5.808-5.735-13.794-9.278-22.607-9.278s-16.798 3.542-22.61 9.281l0.003-0.003-72.957 71.994-72.95-71.994c-5.809-5.735-13.794-9.277-22.607-9.277-17.774 0-32.184 14.409-32.184 32.184 0 8.962 3.663 17.068 9.574 22.904l0.003 0.003 72.342 71.393-72.342 71.4c-5.695 5.802-9.211 13.761-9.211 22.541 0 17.777 14.411 32.188 32.188 32.188 8.631 0 16.468-3.397 22.248-8.927l-0.012 0.011 72.95-71.994 72.957 71.994c5.741 5.387 13.487 8.696 22.007 8.696 17.781 0 32.195-14.414 32.195-32.195 0-8.669-3.426-16.537-8.998-22.325l0.010 0.010-72.349-71.4 72.349-71.393c5.913-5.839 9.575-13.945 9.575-22.907s-3.662-17.068-9.572-22.904l-0.003-0.003z" />
<glyph unicode="&#xe928;" glyph-name="close" d="M306.895 653.155c6.177 6.179 14.712 10.001 24.139 10.001s17.962-3.822 24.139-10.001l156.877-156.877 156.89 156.877c6.166 6.114 14.657 9.892 24.030 9.892 18.851 0 34.133-15.282 34.133-34.133 0-9.373-3.778-17.864-9.894-24.032l-156.882-156.882 156.884-156.884c5.886-6.124 9.51-14.46 9.51-23.642 0-18.855-15.285-34.14-34.14-34.14-9.182 0-17.517 3.625-23.653 9.521l-156.873 156.866-156.884-156.877c-6.177-6.178-14.712-10-24.139-10-18.852 0-34.135 15.283-34.135 34.135 0 9.425 3.82 17.959 9.996 24.136l156.884 156.884-156.877 156.884c-6.177 6.177-9.997 14.71-9.997 24.136s3.82 17.959 9.997 24.136v0z" />
<glyph unicode="&#xe929;" glyph-name="close-square" d="M636.758 570.671c5.77-5.623 9.35-13.469 9.353-22.152v-0.001c-0.002-8.683-3.582-16.53-9.346-22.146l-0.007-0.006-204.459-200.288c-5.881-6.151-14.151-9.974-23.314-9.974-0.036 0-0.071 0-0.107 0h0.006c-17.674 0-31.997 14.036-31.997 31.348 0 9.045 3.912 17.196 10.165 22.917l0.020 0.014 204.459 200.288c5.806 5.67 13.754 9.168 22.52 9.168 0.032 0 0.063 0 0.095 0h-0.005c8.827 0 16.828-3.502 22.617-9.168zM386.984 570.753c5.806 5.67 13.754 9.168 22.52 9.168 0.034 0 0.068 0 0.102 0h-0.005c0.029 0 0.064 0 0.098 0 8.763 0 16.709-3.498 22.518-9.174l-0.006 0.006 204.8-200.622c5.314-5.538 8.586-13.070 8.588-21.367v0c0-17.312-14.322-31.348-31.997-31.348-0.027 0-0.058 0-0.090 0-8.389 0-16.030 3.203-21.766 8.453l0.024-0.022 0.014-0.014-204.8 200.615c-5.771 5.622-9.351 13.469-9.353 22.152v0c0.002 8.683 3.582 16.53 9.346 22.146l0.007 0.006zM181.044 772.208c71.168 69.68 181.2 93.751 330.957 93.751 149.763 0 259.802-24.078 330.97-93.751 71.12-69.714 95.696-177.507 95.696-324.205 0-146.705-24.576-254.539-95.703-324.212-71.168-69.714-181.207-93.751-330.964-93.751-149.763 0-259.796 24.037-330.964 93.751-71.134 69.714-95.703 177.507-95.703 324.212s24.576 254.498 95.703 324.205zM226.305 727.862c-52.176-51.111-76.964-136.67-76.964-279.859 0-143.237 24.788-228.755 76.971-279.866 52.183-51.159 139.517-75.401 285.696-75.401 146.22 0 233.513 24.241 285.696 75.401 52.176 51.111 76.971 136.629 76.971 279.866 0 143.23-24.788 228.748-76.971 279.859-52.183 51.118-139.523 75.401-285.696 75.401-146.227 0-233.513-24.282-285.696-75.401z" />
<glyph unicode="&#xe92a;" glyph-name="cursor" d="M126.713 825.402c5.806 5.678 13.76 9.182 22.531 9.182 0.028 0 0.055 0 0.083 0h-0.004c4.437 0 8.649-0.887 12.493-2.478l-0.205 0.075 725.333-295.506c11.674-4.847 19.709-15.974 19.709-28.945 0-13.674-8.936-25.3-21.402-29.587l-0.225-0.068-301.698-101.144-102.059-294.284c-4.56-12.482-16.331-21.231-30.146-21.231-0.051 0-0.101 0-0.152 0h0.008c-13.223 0-24.576 7.851-29.45 19.060l-0.075 0.205-301.657 710.533c-1.549 3.518-2.451 7.621-2.451 11.933 0 0.034 0 0.067 0 0.101v-0.005c0.003 8.688 3.589 16.537 9.359 22.153l0.007 0.007zM208.633 745.155l239.357-563.698 79.79 230.168c3.307 9.197 10.463 16.299 19.472 19.463l0.223 0.068 0.225 0.068 236.633 79.326-575.706 234.605z" />
<glyph unicode="&#xe92b;" glyph-name="danger-square" d="M226.304 727.866c-52.224-51.118-76.971-136.67-76.971-279.866 0-143.237 24.747-228.748 76.971-279.866 52.176-51.159 139.469-75.401 285.696-75.401s233.513 24.241 285.696 75.401c52.176 51.111 76.971 136.629 76.971 279.866 0 143.23-24.788 228.748-76.971 279.866-52.183 51.111-139.523 75.401-285.696 75.401-146.227 0-233.513-24.282-285.696-75.401zM181.077 772.171c71.079 69.755 181.159 93.785 330.923 93.785 149.757 0 259.796-24.071 330.923-93.744 71.168-69.721 95.744-177.514 95.744-324.219s-24.576-254.539-95.744-324.212c-71.086-69.707-181.166-93.737-330.923-93.737-149.763 0-259.843 24.030-330.964 93.744-71.168 69.714-95.703 177.507-95.703 324.212s24.535 254.498 95.703 324.212l0.041-0.041zM512 642.143c17.674 0 31.997-14.036 31.997-31.348v-162.802c0-17.312-14.322-31.348-31.997-31.348-17.681 0-32.003 14.036-32.003 31.348v162.802c0 17.312 14.329 31.348 32.003 31.348zM479.778 301.711c0 17.312 14.329 31.348 32.003 31.348h0.423c17.674 0 32.003-14.036 32.003-31.348s-14.336-31.348-32.003-31.348h-0.423c-17.681 0-32.003 14.036-32.003 31.348z" />
<glyph unicode="&#xe92c;" glyph-name="danger-triangle" d="M511.997 855.51c-51.883 0-99.41-30.010-146.432-81.374-47.015-51.412-96.338-126.225-154.965-228.338-16.896-29.464-54.613-91.744-85.927-159.45-31.273-67.707-59.139-139.68-47.657-203.087 5.325-29.676 19.067-56.675 41.213-76.902 22.187-20.227 51.159-33.56 86.357-42.926 70.403-18.726 168.107-22.944 307.412-22.944 139.312 0 237.015 4.219 307.412 22.944 35.205 9.359 64.259 22.699 86.446 42.926 22.146 20.227 35.799 47.227 41.131 76.902 11.476 63.406-16.384 135.421-47.657 203.127-31.28 67.714-68.99 129.987-85.934 159.409-58.627 102.113-107.943 176.968-154.965 228.332-47.056 51.377-94.549 81.374-146.432 81.374zM511.997 792.814c26.453 0 57.644-15.674 98.782-60.607 41.083-44.844 89.293-116.859 146.896-217.17 17.831-31.136 53.931-90.945 83.326-154.556 29.396-63.577 49.152-132.082 43.008-166.27-3.454-19.142-9.981-31.136-21.845-41.964-11.858-10.861-30.679-20.644-59.522-28.337-57.638-15.34-152.87-20.726-290.645-20.726-137.81 0-232.994 5.427-290.679 20.726-28.809 7.694-47.623 17.517-59.481 28.337-11.865 10.827-18.35 22.822-21.845 41.964-6.144 34.188 13.653 102.694 43.008 166.263 29.396 63.618 65.495 123.426 83.326 154.522 57.603 100.352 105.813 172.373 146.944 217.259 41.090 44.885 72.233 60.553 98.727 60.553zM511.997 625.628c-17.667 0-31.997-14.036-31.997-31.348v-162.796c0-17.312 14.329-31.348 31.997-31.348 17.681 0 32.003 14.036 32.003 31.348v162.802c0 17.312-14.329 31.348-32.003 31.348zM511.826 316.551c-17.667 0-31.997-14.036-31.997-31.348s14.329-31.348 32.003-31.348h0.341c17.667 0 31.997 14.036 31.997 31.348s-14.329 31.348-32.003 31.348h-0.341z" />
<glyph unicode="&#xe92d;" glyph-name="delete" d="M230.53 579.7c-17.674 0-31.997-14.036-31.997-31.348 0-166.059-15.155-287.471 18.091-379.426 16.637-45.971 48.852-84.009 97.58-106.578 48.763-22.651 112.039-31.935 197.332-31.935 85.333 0 148.685 9.284 197.543 31.894 48.77 22.651 81.073 60.607 97.792 106.578 33.539 91.866 18.691 213.408 18.691 379.508 0 17.312-14.329 31.348-32.003 31.348s-31.997-14.036-31.997-31.348c0-169.11 9.728-290.857-14.93-358.482-12.336-33.812-29.826-54.668-64.901-70.929-35.11-16.302-89.853-25.914-170.189-25.914-80.35 0-135.004 9.66-169.984 25.914-34.993 16.261-52.361 37.035-64.601 70.847-24.453 67.625-14.418 189.42-14.418 358.523 0 17.312-14.336 31.348-32.003 31.348zM167.472 708.219c-17.681 0-32.003-14.036-32.003-31.348s14.329-31.348 32.003-31.348h689.056c17.674 0 32.003 14.036 32.003 31.348s-14.329 31.348-32.003 31.348h-689.056zM512 865.587c-94.549 0-147.238-50.49-166.182-98.761-18.992-48.271-11.694-94.29-11.694-94.29 2.266-15.34 15.592-26.993 31.703-26.993 17.681 0 32.017 14.036 32.017 31.355 0 1.543-0.123 3.058-0.341 4.54l0.020-0.171s-3.925 32.686 8.021 63.113c11.947 30.433 32.215 58.518 106.414 58.518 74.24 0 94.549-28.174 106.496-58.6 11.947-30.433 8.021-63.031 8.021-63.031-0.341-1.707-0.532-3.673-0.532-5.687 0-17.312 14.329-31.348 32.003-31.348 16.575 0 30.208 12.356 31.833 28.167l0.014 0.137s7.38 46.012-11.564 94.29c-18.985 48.271-71.762 98.761-166.27 98.761h0.041z" />
<glyph unicode="&#xe92e;" glyph-name="google" d="M511.999 725.34c-153.139-0.037-277.268-124.189-277.268-277.333 0-153.167 124.166-277.333 277.333-277.333 130.46 0 239.881 90.080 269.457 211.435l0.391 1.898h-227.246c-35.346 0-64 28.654-64 64s28.654 64 64 64v0h298.667c35.346 0 64-28.654 64-64v0c0-0.002 0-0.004 0-0.006 0-97.887-34.702-187.669-92.474-257.716l0.553 0.691c-74.893-90.845-187.445-148.317-313.419-148.317-167.701 0-311.614 101.849-373.257 247.065l-1.001 2.655c-19.646 45.975-31.068 99.469-31.068 155.63 0 223.859 181.474 405.333 405.333 405.333 111.538 0 212.554-45.052 285.843-117.951l-0.017 0.017c11.617-11.556 18.819-27.539 18.862-45.205v-0.008c0-0.043 0-0.095 0-0.147 0-17.623-7.117-33.584-18.633-45.165l0.003 0.003c-11.591-11.658-27.64-18.873-45.373-18.873-17.618 0-33.573 7.121-45.144 18.643l0.002-0.002c-49.975 49.856-118.951 80.685-195.127 80.685-0.146 0-0.293 0-0.439 0h0.023z" />
<glyph unicode="&#xe92f;" glyph-name="discount" d="M226.304 727.866c-52.176-51.118-76.971-136.67-76.971-279.866 0-143.237 24.788-228.748 76.971-279.866 52.183-51.159 139.523-75.401 285.696-75.401 146.22 0 233.513 24.241 285.696 75.401 52.224 51.111 76.971 136.629 76.971 279.866 0 143.23-24.747 228.748-76.971 279.866-52.183 51.111-139.476 75.401-285.696 75.401s-233.513-24.282-285.696-75.401zM181.077 772.171c71.086 69.755 181.166 93.785 330.923 93.785 149.763 0 259.843-24.071 330.964-93.744 71.168-69.721 95.703-177.514 95.703-324.219s-24.535-254.539-95.703-324.212c-71.168-69.707-181.2-93.737-330.964-93.737s-259.796 24.030-330.923 93.744c-71.209 69.714-95.744 177.507-95.744 324.212s24.576 254.498 95.744 324.212v-0.041zM644.267 577.57c5.772-5.622 9.354-13.469 9.359-22.152v-0.001c-0.003-8.683-3.583-16.529-9.346-22.146l-0.007-0.006-219.313-214.842c-5.881-6.151-14.151-9.974-23.314-9.974-0.036 0-0.071 0-0.107 0h0.006c-17.667 0-31.997 14.029-31.997 31.341 0 9.052 3.912 17.203 10.172 22.917l0.014 0.020 219.307 214.835c5.805 5.666 13.751 9.162 22.513 9.162 0.036 0 0.073 0 0.109 0h-0.006c0.029 0 0.064 0 0.098 0 8.763 0 16.709-3.498 22.518-9.174l-0.006 0.006zM575.788 343.511c0 23.081 19.101 41.793 42.667 41.793h0.423c23.566 0 42.667-18.712 42.667-41.793 0-23.088-19.101-41.8-42.667-41.8h-0.423c-23.566 0-42.667 18.712-42.667 41.8zM362.455 552.489c0 23.081 19.101 41.793 42.667 41.793h0.423c23.566 0 42.667-18.705 42.667-41.793 0-23.081-19.101-41.8-42.667-41.8h-0.423c-23.566 0-42.667 18.719-42.667 41.8z" />
<glyph unicode="&#xe930;" glyph-name="discovery" d="M181.037 772.208c71.168 69.68 181.2 93.751 330.957 93.751 149.763 0 259.802-24.078 330.97-93.751 71.127-69.714 95.703-177.507 95.703-324.205 0-146.705-24.576-254.539-95.703-324.212-71.168-69.714-181.207-93.751-330.964-93.751-149.763 0-259.796 24.037-330.964 93.751-71.134 69.714-95.703 177.507-95.703 324.212s24.576 254.498 95.703 324.205zM226.298 727.862c-52.176-51.111-76.964-136.67-76.964-279.859 0-143.237 24.788-228.755 76.971-279.866 52.183-51.159 139.517-75.401 285.696-75.401 146.22 0 233.513 24.241 285.696 75.401 52.176 51.111 76.971 136.629 76.971 279.866 0 143.23-24.788 228.748-76.971 279.859-52.183 51.118-139.523 75.401-285.696 75.401-146.227 0-233.513-24.282-285.696-75.401zM675.493 608.163c5.792-5.629 9.386-13.493 9.386-22.196 0-3.41-0.552-6.691-1.571-9.759l0.063 0.218 0.061 0.225-67.154-210.234c-3.28-9.79-10.914-17.326-20.541-20.404l-0.225-0.062-0.225-0.061-214.617-65.83c-2.86-0.908-6.151-1.434-9.571-1.434-17.674 0-32.003 14.036-32.003 31.348 0 3.345 0.539 6.574 1.529 9.598l-0.061-0.218 67.154 210.234c3.271 9.804 10.907 17.353 20.541 20.438l0.225 0.062 0.225 0.061 214.617 65.782c2.823 0.905 6.071 1.427 9.441 1.427 0.029 0 0.058 0 0.086 0h-0.004c8.847 0 16.855-3.516 22.644-9.196zM463.791 495.23l-43.861-137.387 140.247 43.049 43.902 137.346-140.288-43.008z" />
<glyph unicode="&#xe931;" glyph-name="document" d="M325.335 293.524c0 17.312 14.322 31.348 31.997 31.348h308.053c17.674 0 32.003-14.036 32.003-31.348s-14.329-31.348-32.003-31.348h-308.053c-17.674 0-32.003 14.036-32.003 31.348zM325.335 450.633c0 17.312 14.322 31.348 31.997 31.348h308.053c17.674 0 32.003-14.036 32.003-31.348s-14.329-31.348-32.003-31.348h-308.053c-17.674 0-32.003 14.036-32.003 31.348zM325.335 607.783c0 17.319 14.322 31.355 31.997 31.355h117.548c17.674 0 31.997-14.036 31.997-31.348s-14.322-31.348-31.997-31.348h-117.548c-17.674 0-32.003 14.036-32.003 31.348zM208.599 771.083c65.359 70.636 166.735 94.877 303.398 94.877 136.67 0 238.080-24.282 303.404-94.877 64.512-69.673 86.617-176.879 86.617-323.079 0-146.207-22.105-253.454-86.617-323.086-65.365-70.636-166.741-94.877-303.404-94.877s-238.032 24.241-303.357 94.877c-64.601 69.632-86.658 176.879-86.658 323.086 0 146.2 22.098 253.406 86.617 323.079zM255.997 728.949c-47.35-51.159-70.014-137.161-70.014-280.945 0-143.742 22.61-229.84 70.014-280.999 46.51-50.196 124.163-74.274 256-74.274 131.891 0 209.497 24.078 256 74.274 47.363 51.159 70.021 137.257 70.021 280.999 0 143.729-22.617 229.786-69.973 280.945-46.592 50.244-124.204 74.315-256.089 74.315-131.837 0-209.49-24.071-256-74.315h0.041z" />
<glyph unicode="&#xe932;" glyph-name="dots" d="M597.333 680.107c0-47.131-38.202-85.333-85.333-85.333s-85.333 38.202-85.333 85.333 38.202 85.333 85.333 85.333 85.333-38.202 85.333-85.333zM597.333 448.001c0-47.131-38.202-85.333-85.333-85.333s-85.333 38.202-85.333 85.333 38.202 85.333 85.333 85.333 85.333-38.202 85.333-85.333zM597.333 215.894c0-47.131-38.202-85.333-85.333-85.333s-85.333 38.202-85.333 85.333 38.202 85.333 85.333 85.333 85.333-38.202 85.333-85.333z" />
<glyph unicode="&#xe933;" glyph-name="download" d="M506.881 868.257c17.674 0 32.003-14.036 32.003-31.348v-503.262c0-17.312-14.329-31.348-32.003-31.348s-31.997 14.036-31.997 31.348v503.262c0 17.319 14.322 31.348 31.997 31.348zM359.855 478.182c5.801 5.642 13.731 9.121 22.474 9.121 0.033 0 0.067 0 0.1 0h-0.005c8.847 0 16.862-3.516 22.658-9.202l101.758-100.065 101.758 100.058c5.852 5.943 13.986 9.626 22.98 9.626 0.033 0 0.067 0 0.1 0h-0.005c17.667 0 31.997-14.042 31.997-31.355 0-8.82-3.721-16.794-9.708-22.48l-0.007-0.014-124.416-122.375c-5.812-5.707-13.786-9.23-22.583-9.23-0.033 0-0.067 0-0.1 0h0.005c-0.029 0-0.064 0-0.098 0-8.796 0-16.769 3.523-22.585 9.235l0.005-0.005-124.416 122.382c-5.745 5.617-9.308 13.444-9.312 22.104v0.001c0 8.67 3.591 16.521 9.4 22.193zM666.577 651.34c1.556 16.029 15.23 28.467 31.874 28.467 1.038 0 2.062-0.048 3.079-0.137l-0.13 0.007c78.807-7.1 142.759-25.791 184.149-80.459 39.677-52.408 53.118-131.407 53.118-243.371 0-148.378-23.723-239.541-101.547-286.351-37.117-22.316-83.033-32.181-135.598-36.987-52.347-4.765-115.234-4.765-188.157-4.765h-2.69c-72.957 0-135.851 0-188.245 4.765-52.565 4.806-98.475 14.63-135.55 36.994-77.783 46.851-101.547 138.049-101.547 286.345 0 111.923 13.483 190.921 53.118 243.33 41.39 54.668 105.342 73.353 184.149 80.459 0.635 0.041 1.365 0.068 2.109 0.068 17.674 0 32.003-14.036 32.003-31.348 0-15.995-12.233-29.191-28.023-31.109l-0.157-0.014c-73.899-6.69-114.046-22.903-138.622-55.337-26.242-34.693-40.537-95.13-40.537-206.015 0-148.378 25.559-205.551 71.038-232.926 24.576-14.8 58.798-23.491 107.998-27.962 49.063-4.471 109.090-4.512 183.637-4.512 74.534 0 134.526 0.041 183.59 4.512 49.193 4.471 83.456 13.162 108.032 27.962 45.527 27.375 71.038 84.555 71.038 232.926 0 110.886-14.247 171.281-40.53 206.015-24.576 32.474-64.724 48.688-138.622 55.337-16.35 1.536-29.020 14.923-29.020 31.212 0 1.017 0.048 2.028 0.143 3.017l-0.014-0.123h-0.082z" />
<glyph unicode="&#xe934;" glyph-name="drag" d="M734.061 676.748c-5.373-5.311-10.793-15.005-10.793-31.724v-23.866c0-17.312-14.329-31.348-31.997-31.348-17.681 0-32.003 14.036-32.003 31.348v23.866c0 31.055 10.581 57.221 29.184 75.735 17.021 16.87 40.455 27.293 66.323 27.293 0.098 0 0.196 0 0.293 0h0.203c24.064 0 48.469-9.025 66.813-27.293 18.603-18.514 29.184-44.715 29.184-75.735v-358.229c0-59.098-19.456-109.507-56.532-145.162-36.953-35.526-88.235-53.371-146.132-53.371h-197.168c-32.85 0-64.253 13.503-86.439 37.239l369.063 551.247zM364.998 125.501l-161.41 172.578c-19.128 20.384-30.857 47.691-30.857 77.687 0 0.019 0 0.042 0 0.065 0 26.188 8.915 50.294 23.876 69.448l-0.188-0.25-0.212-0.294 85.456 111.643c5.95 7.659 15.161 12.541 25.513 12.541 0.031 0 0.061 0 0.092 0h-0.005c17.681 0 32.003-14.036 32.003-31.348 0-0.005 0-0.010 0-0.016 0-7.14-2.43-13.712-6.509-18.935l0.051 0.068 0.055 0.075-85.504-111.684c-6.651-8.551-10.663-19.442-10.663-31.269 0-0.025 0-0.050 0-0.076v0.004c0-13.64 5.338-26.057 14.070-35.362l-0.034 0.041 161.451-172.537c9.823-10.429 23.724-16.923 39.141-16.923 0.039 0 0.079 0 0.118 0h197.162c44.496 0 78.507 13.496 101.328 35.437 22.658 21.818 37.335 55.009 37.335 100.4v358.229c0 16.719-5.42 26.419-10.793 31.764-5.371 5.297-12.751 8.568-20.895 8.568-0.029 0-0.058 0-0.088 0h-0.452c-8.206 0-15.626-3.277-20.978-8.567l-369.063-551.287zM694.084 758.456c18.603-18.514 29.184-44.715 29.184-75.735v-61.563c0-17.312-14.322-31.348-31.997-31.348s-32.003 14.036-32.003 31.348v61.563c0 16.725-5.42 26.419-10.793 31.771-5.368 5.296-12.745 8.568-20.887 8.568-0.032 0-0.064 0-0.096 0h-0.452c-8.199 0-15.619-3.277-20.972-8.567-5.379-5.352-10.8-15.046-10.8-31.764v-61.57c0-17.312-14.322-31.341-31.997-31.341s-32.003 14.029-32.003 31.341v83.593c0 7.646 2.819 14.63 7.468 20.105 5.086 13.121 12.482 24.321 21.777 33.622l-0.014-0.014c17.021 16.845 40.441 27.252 66.293 27.252 0.096 0 0.193 0 0.289 0h0.19c24.064 0 48.469-8.991 66.813-27.252zM478.061 736.515c-5.373-5.345-10.786-15.046-10.786-31.764v-83.593c0-17.312-14.336-31.348-32.003-31.348-17.674 0-32.003 14.036-32.003 31.348v88.439c0 14.090-10.834 26.501-31.997 26.501-17.674 0-32.003-14.036-32.003-31.348v-292.57c0-17.312-14.322-31.348-31.997-31.348s-32.003 14.036-32.003 31.348v292.57c0 51.937 42.981 94.044 96.003 94.044 22.016 0 43.431-6.69 60.457-19.060l0.724 0.751c17.016 16.845 40.432 27.252 66.279 27.252 0.099 0 0.198 0 0.297 0h0.449c30.877 0 58.266-14.65 75.298-37.239l0.184-0.253c15.79 10.37 34.133 15.469 52.313 15.469 24.064 0 48.469-8.991 66.813-27.252 18.603-18.514 29.184-44.721 29.184-75.735v-61.57c0-17.312-14.322-31.348-31.997-31.348s-32.003 14.036-32.003 31.348v61.577c0 16.712-5.42 26.406-10.793 31.758-5.363 5.272-12.724 8.527-20.845 8.527-0.030 0-0.060 0-0.090 0h-0.541c-0.025 0-0.055 0-0.085 0-8.121 0-15.482-3.255-20.849-8.531l0.004 0.004c-5.379-5.352-10.793-15.046-10.793-31.764v-61.57c0-17.312-14.329-31.341-32.003-31.341s-31.997 14.029-31.997 31.341v83.593c0 16.725-5.42 26.419-10.8 31.764-5.364 5.276-12.728 8.533-20.852 8.533-0.028 0-0.055 0-0.083 0h-0.542c-0.023 0-0.051 0-0.078 0-8.124 0-15.488-3.257-20.856-8.537l0.004 0.004z" />
<glyph unicode="&#xe935;" glyph-name="drag-handle" d="M215.040 673.28c0 18.851 15.282 34.133 34.133 34.133v0h525.653c18.851 0 34.133-15.282 34.133-34.133s-15.282-34.133-34.133-34.133v0h-525.653c-18.851 0-34.133 15.282-34.133 34.133v0zM215.040 449.693c0 18.851 15.282 34.133 34.133 34.133v0h525.653c18.851 0 34.133-15.282 34.133-34.133s-15.282-34.133-34.133-34.133v0h-525.653c-18.851 0-34.133 15.282-34.133 34.133v0zM215.040 222.72c0 18.851 15.282 34.133 34.133 34.133v0h525.653c18.851 0 34.133-15.282 34.133-34.133s-15.282-34.133-34.133-34.133v0h-525.653c-18.851 0-34.133 15.282-34.133 34.133v0z" />
<glyph unicode="&#xe936;" glyph-name="edit" d="M537.782 136.034c0 17.312 14.322 31.348 31.997 31.348h272.084c17.674 0 32.003-14.036 32.003-31.348 0-17.306-14.329-31.341-32.003-31.341h-272.084c-17.674 0-31.997 14.029-31.997 31.341zM478.684 741.744c29.887 36.884 75.66 60.327 127.024 60.327 89.354 0 161.792-70.956 161.792-158.488 0-0.032 0-0.071 0-0.11 0-34.79-11.419-66.913-30.714-92.826l0.294 0.413 0.328 0.471-51.2 37.615c10.989 15.154 17.579 34.122 17.579 54.63 0 0.057 0 0.113 0 0.17v-0.009c0 52.907-43.786 95.799-97.792 95.799-30.672 0-58.047-13.831-75.974-35.471l-0.137-0.177-288.085-375.876c-29.744-38.823-31.321-82.924-24.030-120.074 3.823-18.855 9.312-35.505 16.493-51.248l-0.614 1.509 4.608-0.505c12.541-1.249 29.949-2.089 49.193-0.246 38.83 3.68 81.49 17.551 110.674 55.59l288.085 375.951 51.2-37.615-288.126-375.958c-43.943-57.426-107.008-75.776-155.689-80.37-8.718-0.84-18.842-1.318-29.082-1.318-0.048 0-0.105 0-0.162 0-20.829 0-41.197 1.975-60.927 5.748l2.017-0.321 1.959-0.307-1.618 0.335-0.471 0.13h-0.253s-0.041 0.041 7.127 30.59l-27.785-15.544-0.034 0.082-0.13 0.164-0.212 0.423-0.812 1.42c-2.944 5.192-6.202 11.753-9.151 18.48l-0.584 1.495-0.676 1.754c-7.25 16.486-13.421 35.888-17.545 56.013l-0.335 1.918c-9.257 47.104-8.786 111.473 35.669 169.527l288.092 375.91zM212.184 130.102l-27.778-15.551c4.452-7.46 11.654-12.887 20.173-14.913l0.218-0.044 0.218-0.048 7.168 30.556zM423.388 668.808c5.95 7.659 15.161 12.541 25.513 12.541 0.031 0 0.061 0 0.092 0h-0.005c7.236 0 13.926-2.355 19.285-6.328l-0.082 0.061 207.531-152.644c7.81-5.775 12.8-14.855 12.8-25.074 0-17.312-14.329-31.348-32.003-31.348-0.023 0-0.051 0-0.078 0-7.229 0-13.904 2.376-19.285 6.389l0.085-0.061 0.082-0.055-207.531 152.678c-7.81 5.775-12.8 14.855-12.8 25.074 0 0.007 0 0.015 0 0.023 0 7.14 2.43 13.712 6.509 18.935l-0.051-0.068-0.061-0.082v-0.041z" />
<glyph unicode="&#xe937;" glyph-name="edit-square" d="M512.001 865.96c-151.552 0-260.178-24.535-330.923-93.785-70.697-69.297-95.744-175.718-95.744-324.178s25.047-254.874 95.744-324.171c70.738-69.25 179.371-93.785 330.923-93.785s260.267 24.535 331.011 93.792c70.697 69.297 95.655 175.712 95.655 324.171 0 17.312-14.329 31.348-31.997 31.348-17.674 0-32.003-14.036-32.003-31.348 0-141.483-24.364-228.291-77.012-279.825-52.606-51.616-141.23-75.441-285.655-75.441s-233.042 23.866-285.648 75.441c-52.702 51.535-77.018 138.342-77.018 279.825 0 141.476 24.371 228.284 77.018 279.825 52.606 51.603 141.223 75.428 285.648 75.428 17.681 0 32.003 14.036 32.003 31.348s-14.329 31.348-32.003 31.348zM757.167 825.799c-36.912-2.144-69.516-18.609-92.385-43.759l-0.116-0.13s-186.457-206.302-251.098-277.934c-79.578-87.941-22.234-204.547-22.234-204.547 3.892-7.808 10.657-13.696 18.875-16.348l0.226-0.063 0.232-0.061s125.351-40.707 204.158 46.517l251.18 277.818c20.793 22.963 33.519 53.569 33.519 87.147 0 0.020 0 0.040 0 0.060v-0.003c0 39.158-17.381 74.342-45.001 98.55l-0.123 0.116c-23.518 20.432-54.641 32.905-88.747 32.905-2.99 0-5.953-0.096-8.895-0.28l0.403 0.020zM761.004 763.608c17.92 1.038 36.27-4.642 50.988-17.394 29.437-25.491 32.126-68.54 6.096-97.382l-251.174-277.811c-41.219-45.602-101.205-34.734-121.603-30.222-7.25 19.060-25.982 75.025 16.213 121.624 64.56 71.639 251.010 277.859 251.010 277.859 12.030 13.389 29 22.131 48.018 23.344l0.206 0.011 0.205 0.014 0.041-0.048zM641.837 738.486c-0.442 0.022-0.96 0.034-1.481 0.034-0.027 0-0.053 0-0.080 0h0.004c-17.674 0-32.003-14.029-32.003-31.348 0.012-9.402 4.208-17.821 10.826-23.497l0.042-0.035 153.423-133.024c5.624-4.903 13.027-7.892 21.128-7.892 0.034 0 0.067 0 0.101 0h-0.005c17.681 0 32.010 14.042 32.010 31.355-0.009 9.35-4.155 17.731-10.707 23.41l-0.039 0.033-0.034 0.027-153.429 132.997c-5.259 4.622-12.095 7.563-19.607 7.93l-0.074 0.003h-0.075z" />
<glyph unicode="&#xe938;" glyph-name="filter" d="M139.154 228.778c0 17.312 14.329 31.348 32.003 31.348h276.18c17.674 0 31.997-14.036 31.997-31.348s-14.322-31.348-31.997-31.348h-276.227c-17.667 0-31.997 14.036-31.997 31.348h0.041zM623.377 339.786c27.648 27.088 68.055 34.065 113.37 34.065 45.309 0 85.716-6.977 113.323-34.065 27.648-27.034 34.816-66.621 34.816-111.049 0-44.387-7.168-83.968-34.816-111.049-27.607-27.047-68.014-34.024-113.323-34.024-45.315 0-85.722 6.977-113.37 34.024-27.648 27.081-34.768 66.662-34.768 111.049 0 44.428 7.12 84.009 34.768 111.049zM668.603 295.481c-8.615-8.479-15.995-25.784-15.995-66.744 0-40.919 7.38-58.225 16.043-66.71 8.663-8.479 26.324-15.674 68.096-15.674 41.766 0 59.433 7.195 68.096 15.674 8.656 8.486 16.002 25.791 16.002 66.71 0 40.96-7.345 58.259-16.002 66.703-8.663 8.486-26.324 15.715-68.096 15.715-41.813 0-59.44-7.229-68.096-15.715l-0.048 0.041zM544.747 667.173c0 17.312 14.322 31.348 31.997 31.348h276.098c17.674 0 31.997-14.036 31.997-31.348s-14.322-31.341-31.997-31.341h-276.098c-17.674 0-31.997 14.029-31.997 31.341zM173.929 778.27c27.648 27.040 68.055 34.065 113.364 34.065 45.356 0 85.763-7.025 113.364-34.065 27.648-27.081 34.775-66.662 34.775-111.049s-7.127-84.009-34.775-111.056c-27.648-27.034-68.055-34.065-113.364-34.065-45.315 0-85.716 7.031-113.364 34.065-27.648 27.088-34.775 66.669-34.775 111.056s7.12 84.009 34.768 111.049h0.007zM219.156 733.924c-8.622-8.486-16.002-25.791-16.002-66.71 0-40.96 7.38-58.218 16.043-66.703 8.67-8.486 26.324-15.715 68.096-15.715 41.813 0 59.474 7.229 68.096 15.715 8.663 8.479 16.043 25.784 16.043 66.703s-7.373 58.231-16.043 66.71c-8.656 8.486-26.324 15.715-68.096 15.715s-59.433-7.229-68.096-15.715h-0.041z" />
</font>
</defs>
</svg>
